HD-Vinyl 24/96 (Philips) Giacomo Puccini – Messa di Gloria (Inbal)


Reposted, now with FF links
Discover a new, mostly unknown face of Puccini. Well known in the world as the Opera man, is really a pity he didn’t compose more works like this obscure gem.

# Composer: Giacomo Puccini
# Performer: Kari Lövaas, Werner Hollweg, Barry McDaniel
# Orchestra: Radio Symphony Orchestra Frankfurt
# Conductor: Eliahu Inbal
# Vinyl (1975)
# Number of Discs: 1
# Format: Flac (Tracks)
# Label: Philips

# ASIN: B00004UGSP
# Size: 816 MB
# Scan: yes

# Server: FileFactory

Analyzed folder: /96kGP_MeDiGlo/96k Puccini – Messa di Gloria

DR Peak RMS Filename
DR14 -4.68 dB -24.76 dB A1 Kyrie.wav
DR11 -2.10 dB -18.67 dB A2 Gloria.wav
DR12 -1.55 dB -19.87 dB B1 Credo.wav
DR12 -2.50 dB -20.31 dB B2 Sanctus.wav
DR12 -8.91 dB -25.46 dB B3 Agnus Dei.wav
Number of files: 5
Official DR value: DR12


Ripping Infos

  • RCM: Okki Nokki (L’art du son, Clearaudio’s Diamond Cleaner)
  • TT: Clearaudio Champion Level II
  • Cartridge: Limited Edition Denon DL103 SA
  • Phono amp: Pro-Ject Phono Box II
  • Pre Amp: Unison Research Unico Pre (Tube)
  • Finals: Opera Consonance 9.9 Mono (Tube)
  • Speakers: Dali Helikon 400
  • Connections: MIT Terminator, Audioquest Emerald, Audioquest Quartz
  • Software: iZotope RX Advanced v2.02, Adobe Audition CS 5.5, Twisted Wave 1.9
  • Light de-Clicking with iZotope, significant clicks manually removing, no De-Noising

If You hear some clicks and pops here and there, Who cares?
Id rather have a few light anomalies instead of destroying the music. Enjoy the music, not the ticks & pops.

  • DR-Analisys before converting to Flac
  • Converting Wave -> Flac: Twisted Wave 1.9
  • Artwork: Sony Alpha 350, Epson Perfection V750 Pro, Photoshop CS 5.5

If you like what i do, please consider that a little donation would be very appreciate.
I reinvest all donations in maintenance of my rig, for purchasing cleaning solutions and, most important of all, purchasing of new vinyls.

Click on the “Donate”-button. Thank you very much !

Download from FileFactory
2 archives
PW: LaWally

6 thoughts on “HD-Vinyl 24/96 (Philips) Giacomo Puccini – Messa di Gloria (Inbal)

  1. Yeah, Puccini is my man! I have a mp3 version of a different recording which is moved to the trash at this moment, hehe. Thanks Alf, you are my man! Like Puccini:o)

Leave a Reply