HD-Vinyl 24/96 (Philips) Jean-Philippe Rameau – Music-Suites from Ballets and Ouvertures

Many thanks to robbie52 for this fine gem

A very enjoyable voyage through Rameau’s music of ballets and ouvertures. If Rameau is not well known to you, this two-LPs set is the best place to start with.

Composer: Jean-Philippe Rameau
Orchestra: Orchestre Des Concerts Lamoureux, London Symphony Orchestra, New Philarmonia Orchestra
Conductor: Marcel Coraud, Charles Mackerras, Antoine Duhamel, Raymond Leppard
Vinyl (1969)
Number of Discs: 1
Format: Flac
Label: Philips
DR-Analysis: DR 13
Size: 2.1 GB
Scan: yes
Server: FileFactory


 Analyzed folder: /96k Rameau – Ses Plus Belles Suites De Ballets Et Ouvertures
 DR        Peak        RMS        Filename
 DR12        -0.89 dB     -17.98 dB     A Les Indes Galantes.aif
 DR13        -0.84 dB     -18.13 dB     B Les Surprises De L’Amour.aif
 DR13        -0.89 dB     -17.79 dB     C Castor Et Pollux.aif
 DR15        -0.26 dB     -20.35 dB     D1 Les Fetes D’Hebe.aif
 DR14        -0.98 dB     -19.84 dB     D2 Zais.aif
 DR12        -1.91 dB     -18.29 dB     D3 Les Paladins.aif
 Number of files:    6
 Official DR value:    DR13



Ripping Info


  • Software: iZotope RX 4 Advanced, Adobe Audition CS 5.5, Twisted Wave 1.9
  • Super light de-clicking with iZotope, significant clicks manually removing, no de-noising
  • DR-Analisys before converting to Flac
  • Converting Wave -> Flac: Twisted Wave 1.9
  • Artwork: Sony Alpha 350, Epson Perfection V750 Pro, Photoshop CS 5.5

If you like what i do, please consider that a little donation would be very appreciate.
I reinvest all donations in maintenance of my rig, for purchasing cleaning solutions and, most important of all, purchasing of new vinyls.
Click on the “Donate”-button.

Thank you very much !

Download from FileFactory
5 archives
PW: LaWally


14 thoughts on “HD-Vinyl 24/96 (Philips) Jean-Philippe Rameau – Music-Suites from Ballets and Ouvertures

  1. We need more Rameau here 😀
    Thanks robbie52 for this beauty! Listening to it now and it sounds superbe.
    I think Alf should offer his services to DG as a sound engineer 😀

Leave a Reply