HD-Vinyl 24/96 (Philips) Jean Sibelius – Violin Concerto (Salvatore Accardo/Sir Colin Davis)

front-small-boxset113
This was unexpected to me, when I first saw this record. Accardo and Sibelius? WOW, come here to daddy 😉 Enjoy !!!

# Composer: Jean Sibelius
# Performer: Salvatore Accardo
# Orchestra: London Symphony Orchestra
# Conductor: Sir Colin Davis
# Vinyl (1979)

# Number of Discs: 1
# Format: Flac
# Label: Philips
# DR-Analysis: DR 14
# ASIN:
B00004Z32V
# Size: 1.15 GB
# Scan: yes
# Server: FileFactory

 

Tracklist

  Violin Concerto In D Minor
A1 1. Allegro Moderato 16:45
A2 2. Adagio Di Molto 10:12
B1 3. Allegro, Ma Non Tanto 7:30
  6 Humoresques For Violin And Orchestra
B2 No. 1 In D Minor Op. 87 No. 1 (Commodo)
B3 No. 2 In D Op. 87. No. 2 (Allegro Assai)
B4 No. 3 In G Minor Op. 89 No. 1 (Alla Gavotta)
B5 No. 4 In G Minor Op. 89 No. 2 (Andantino)
B6 No. 5 In E Flat Op. 89 No. 3 (Commodo)
B7 No. 6 In G Minor Op. 89 No. 4 (Allegro)

———————————————————————————————-
Analyzed folder: /96k Sibelius – Violin Concerto – Salvatore Accardo
———————————————————————————————-
DR        Peak        RMS        Filename
———————————————————————————————-
DR14        -0.35 dB     -21.85 dB     A1 Violin Concerto In D-Minor 1. Allegro Moderato.wav
DR15        -1.24 dB     -24.06 dB     A2 Violin Concerto In D-Minor 2. Adagio Di Molto.wav
DR15        -1.13 dB     -22.80 dB     B1 Violin Concerto In D-Minor 3. Allegro, Ma Non Tanto.wav
DR15        -3.81 dB     -23.68 dB     B2 6 Humoresques For Violin And Orchestra – No. 1 In D Minor Op. 87 No. 1 (Commodo).wav
DR14        -0.76 dB     -23.27 dB     B3 6 Humoresques For Violin And Orchestra – No. 2 In D Op. 87. No. 2 (Allegro Assai).wav
DR14        -4.65 dB     -24.51 dB     B4 6 Humoresques For Violin And Orchestra – No. 3 In G Minor Op. 89 No. 1 (Alla Gavotta).wav
DR15        -7.77 dB     -28.51 dB     B5 6 Humoresques For Violin And Orchestra – No. 4 In G Minor Op. 89 No. 2 (Andantino).wav
DR14        -6.29 dB     -24.90 dB     B6 6 Humoresques For Violin And Orchestra – No. 5 In E Flat Op. 89 No. 3 (Commodo).wav
DR14        -6.13 dB     -25.66 dB     B7 6 Humoresques For Violin And Orchestra – No. 6 In G Minor Op. 89 No. 4 (Allegro).wav
———————————————————————————————-
Number of files:    9
Official DR value:    DR14
==============================================================================================

 

Credits

  • Composed By – Jean Sibelius
  • Conductor – Colin Davis*
  • Liner Notes – Jack Diether
  • Liner Notes [French Translation] – Régine Grosjean
  • Liner Notes [German Translation] – Uwe Jüttner
  • Orchestra – London Symphony Orchestra*
  • Photography – Clive Barda
  • Violin – Salvatore Accardo

 

Ripping Infos

Monitoring

If You hear some clicks and pops here and there, Who cares?
Id rather have a few light anomalies instead of destroying the music.
Enjoy the music, not the ticks & pops.
I tend more and more, in the last time, to de-click with an automatic setting between 0.7 and 1.2 so you can say, my rips are like half rough rips.

  • Software: iZotope RX 4 Advanced, Adobe Audition CS 5.5, Twisted Wave 1.9
  • Very light de-clicking with iZotope, significant clicks manually removing, no de-noising
  • DR-Analisys before converting to Flac
  • Converting Wave -> Flac: Twisted Wave 1.9
  • Artwork: Sony Alpha 350, Epson Perfection V750 Pro, Photoshop CS 5.5

DONATION !
If you like what i do, please consider that a little donation would be very appreciate.
I reinvest all donations in maintenance of my rig, for purchasing cleaning solutions and, most important of all, purchasing of new vinyls.
Click on the “Donate”-button.

Thank you very much !

Download from FileFactory
3 archives

PW: LaWally

13 thoughts on “HD-Vinyl 24/96 (Philips) Jean Sibelius – Violin Concerto (Salvatore Accardo/Sir Colin Davis)”

Leave a Reply