HD-Vinyl 24/96 (Philips) WAM – Piano Sonatas 1, 6, 13 (Haebler)

front-small-boxset
All thanks for this gem go to
Jean-Luc

Composer: Wolfgang Amadeus Mozart
Performer: Ingrid Haebler
Vinyl 1976
Number of Discs: 1
Format: Flac
Label: Philips
DR-Analysis: DR14
Size: 1.14 GB
Scan: yes
Server:
FF


———————————————————————————————-
Analyzed folder: /96k WAM – Piano Sonatas 1, 6, 13 – Haebler
———————————————————————————————-
DR        Peak        RMS        Filename
———————————————————————————————-
DR14        -1.36 dB     -20.04 dB     A WAM – Piano Sonata No. 6 D Major KV 284.aif
DR15        -1.36 dB     -21.91 dB     B1 WAM – Piano Sonata No. 13 B-Flat Major KV 333.aif
DR14        -1.70 dB     -20.77 dB     B2 WAM – Piano Sonata No. 1 C Major KV 279.aif
———————————————————————————————-
Number of files:    3
Official DR value:    DR14
==============================================================================================


Ripping Info

Monitoring

  • Software: iZotope RX 4 Advanced, Adobe Audition CS 5.5, Twisted Wave 1.9
  • Super light de-clicking with iZotope, significant clicks manually removing, no de-noising
  • DR-Analisys before converting to Flac
  • Converting Wave -> Flac: Twisted Wave 1.9
  • Artwork: Sony Alpha 350, Epson Perfection V750 Pro, Photoshop CS 5.5

DONATION !
If you like what i do, please consider that a little donation would be very appreciated.
I reinvest all donations in maintenance of my rig, for purchasing cleaning solutions and, most important of all, purchasing of new vinyls.
Click on the “Donate”-button. Thank you very much !

DL from FileFactory

PW: LaWally

14 thoughts on “HD-Vinyl 24/96 (Philips) WAM – Piano Sonatas 1, 6, 13 (Haebler)”

  1. I think a better word for Haebler is “mellifluous”: having a smooth rich flow; that is, ‘filled with something like honey that sweetens,” like mellifluous confections.

    In that respect, she is “a sweetheart” at the Piano.

    Thanks, Isaac, and J-L, and Alf.
    Bob

Leave a Reply