HD-Vinyl 24/96 (RCA) Grieg – Piano Concerto – Liszt – Piano Concerto No. 1 (Cliburn/Ormandy)


Many thanks to Janicius for this gift
Van Cliburn’s recordings of the Tchaikovsky First and Rachmaninoff Second Piano Concertos are legendary, but his performances of some of the other famous Romantic Concertos often get overlooked. These recordings of the Grieg and the 1st of Liszt Concerti by Cliburn, and conductor Eugene Ormandy leading the Philadelphia Orchestra, are outstanding. Van Cliburn is at his best on these Concerti, particularly on the Grieg, as he melds his “heart-on-sleeve” style with commanding technique and phrasing. Some may not like this style of playing, and sometimes it does not suit a particular piece (his Brahms First comes to mind), but here there is no question.

Composer: Edward Grieg, Franz Liszt
Performer: Van Cliburn
Orchestra: The Philadelphia Orchestra
Conductor: Eugene Ormandy
Vinyl 1969
Number of Discs: 1
Format: FLAC
Label: RCA
DR-Analysis: DR 13
Size: 915 MB
Scan: yes
Server: FF


———————————————————————————————-
Analyzed folder: /96k Grieg, Liszt – Piano Concerti – Van Cliburn, Ormandy
———————————————————————————————-
DR Peak RMS Filename
———————————————————————————————-

DR13 -0.93 dB -21.15 dB A1 Grieg – Concerto In A Minor – Allegro Molto Moderato.aif
DR14 -6.46 dB -25.32 dB A2 Grieg – Concerto In A Minor – Adagio.aif
DR13 -0.56 dB -18.78 dB A3 Grieg – Concerto In A Minor – Allegro Moderato Molto E Marcato-Quasi Presto-Andante Maestoso.aif
DR13 -2.19 dB -21.26 dB B1 Liszt – Concerto No. 1 In E-Flat – Allegro Maestoso.aif
DR14 -1.25 dB -21.44 dB B2 Liszt – Concerto No. 1 In E-Flat – Quasi adagio – Allegretto vivace – Allegro animato.aif
DR13 -0.70 dB -17.95 dB B3 Liszt – Concerto No. 1 In E-Flat – Allegro marziale animato.aif
———————————————————————————————-

Number of files: 6
Official DR value: DR13

==============================================================================================

 

Ripping Info

Monitoring

A few words about the way i’ve been cleaning vinyl records and post-processing rips, since summer 2017: After washing and recording the vinyl, I use a kind of mixed cleaning of the rip, which consists of mostly manual rather than automatic de-clicking, (the latter only on unimportant passages, such as end of the groove, beginning and end of the songs, applause, speaking). I often leave the rips almost rough, de-clicking only the silences between the tracks. Never de-noising or/and EQ, as unfortunately some do. I prefer to hear a bit of quiet noises of the clean groove, that contain something of the music, rather than generate clinically clean files that may, eventually, sound a bit dead. If you do not agree, do not download my rips and buy instead digital files or CDs.
When I listen to music I “don’t hear” any noise: I enjoy the music 😀
I do not make rips for headphones!

  • Software: iZotope RX 5 Advanced, Adobe Audition CS 5.5, Twisted Wave 1.18
  • Very careful de-clicking with iZotope, significant clicks manually removed, never de-noising
  • DR-Analisys
  • Wave 32/192(32/384) —> Flac 24/96 & 24/192: Twisted Wave 1.18
  • Artwork: Sony Alpha 350, Epson Perfection V750 Pro, Photoshop CS 5.5

 

 

8 thoughts on “HD-Vinyl 24/96 (RCA) Grieg – Piano Concerto – Liszt – Piano Concerto No. 1 (Cliburn/Ormandy)

Leave a Reply