HD-Vinyl 24/96 (RCA) Rachmaninov – Rhapsody On A Theme Of Paganini – Liszt, Piano Concerto No. 2 (Van Cliburn)


Many thanks to Janicius for this gift
Recognition in Moscow propelled Cliburn to international prominence. The first International Tchaikovsky Competition in 1958 was an event designed to demonstrate Soviet cultural superiority during the Cold War, after the USSR’s technological victory with the Sputnik launch in October 1957. Cliburn’s performance at the competition finale of Tchaikovsky’s Piano Concerto No. 1 and Rachmaninoff’s Piano Concerto No. 3 on April 13 earned him a standing ovation lasting eight minutes. When it was time to announce the winner, the judges were obliged to ask permission of the Soviet leader Nikita Khrushchev to give first prize to an American. “Is he the best?” Khrushchev asked. “Then give him the prize!” Cliburn returned home to a ticker-tape parade in New York City, the only time the honor has been accorded a classical musician. (Continue reading here)

Composer: Sergeji Rachmaninov, Franz Liszt
Performer: Van Cliburn
Orchestra: Philadelphia Orchestra
Conductor: Eugene Ormandy
Vinyl 1971
Number of Discs: 1
Format: FLAC
Label: RCA
DR-Analysis: DR 12
Size: 945 MB
Scan: yes
Server: FF


———————————————————————————————-
Analyzed folder: /96k Rachmaninov – Rhapsody On A Theme Of Paganini – Liszt, Piano Concerto No. 2 – Van Cliburn
———————————————————————————————-
DR Peak RMS Filename
———————————————————————————————-

DR13 -0.87 dB -18.90 dB A Rhapsody On A Theme Of Paganini, Op. 43.aif
DR13 -2.72 dB -20.05 dB B1 Piano Concerto No.2 In A, S.125 – 1. Adagio sostenuto assai – Allegro agitato assai.aif
DR12 -1.96 dB -18.85 dB B2 Piano Concerto No.2 In A, S.125 – 2. Allegro moderato – Allegro deciso.aif
DR12 -8.91 dB -26.24 dB B3 Piano Concerto No.2 In A, S.125 – 3. Marziale un poco meno allegro.aif
DR11 -1.06 dB -14.83 dB B4 Piano Concerto No.2 In A, S.125 – 4. Allegro animato – Stretto (molto accelerando).aif
———————————————————————————————-

Number of files: 5
Official DR value: DR12

==============================================================================================

 

Ripping Info

Monitoring

A few words about the way i’ve been cleaning vinyl records and post-processing rips, since summer 2017: After washing and recording the vinyl, I use a kind of mixed cleaning of the rip, which consists of mostly manual rather than automatic de-clicking, (the latter only on unimportant passages, such as end of the groove, beginning and end of the songs, applause, speaking). I often leave the rips almost rough, de-clicking only the silences between the tracks. Never de-noising or/and EQ, as unfortunately some do. I prefer to hear a bit of quiet noises of the clean groove, that contain something of the music, rather than generate clinically clean files that may, eventually, sound a bit dead. If you do not agree, do not download my rips and buy instead digital files or CDs.
When I listen to music I “don’t hear” any noise: I enjoy the music 😀
I do not make rips for headphones!

  • Software: iZotope RX 5 Advanced, Adobe Audition CS 5.5, Twisted Wave 1.18
  • Very careful de-clicking with iZotope, significant clicks manually removed, never de-noising
  • DR-Analisys
  • Wave 32/192(32/384) —> Flac 24/96 & 24/192: Twisted Wave 1.18
  • Artwork: Sony Alpha 350, Epson Perfection V750 Pro, Photoshop CS 5.5

 

 

10 thoughts on “HD-Vinyl 24/96 (RCA) Rachmaninov – Rhapsody On A Theme Of Paganini – Liszt, Piano Concerto No. 2 (Van Cliburn)

Leave a Reply