HD-Vinyl 24/96 (Schwann) Felix Mendelssohn-Bartholdy – Piano concerto for 2 Pianos (Bros. Paratore)

Reposted with FF links

# Composer: Felix Mendelssohn-Bartholdy
# Performer: Antony & Joseph Paratore
# Orchestra: RIAS-Sinfonietta Orchestra
# Conductor: Uros Lajovic
# Vinyl (1982)
# Number of Discs: 1
# Format: Flac (Tracks)
# Label: Schwann Musica Mundi
# DR-Analysis: DR: 13
# Size:
803 MB
# Scan: yes
# Server: FileFactory

Analyzed folder: /96k Mendelsohn – Concerto For Two Pianos – Paratore
DR        Peak        RMS        Filename
DR12        -1.72 dB     -18.01 dB     A1 Concerto for two pianos – Allegro vivace.wav
DR15        -3.57 dB     -23.10 dB     A2 Concerto for two pianos – Adagio non troppo.wav
DR13        -1.74 dB     -18.29 dB     B1 Concerto for two pianos – Allegro.wav
DR13        -1.72 dB     -18.83 dB     B2 Variations from ‘Preziosa’ by Carl Maria von Weber.wav
Number of files:    4
Official DR value:    DR13

Ripping Infos

  • RCM: Okki Nokki
  • TT: Clearaudio Champion Level II + Special Edition Denon DL 103 -> Pro-Ject Phono Box II
  • Pre Amp: Unison Research Unico Pre (Tube)
  • Finals: Opera Consonance 9.9 Mono (Tube)
  • Speakers: Dali Helikon 400
  • Software: iZotope RX Advanced v2.02, Adobe Audition CS 5.5 -> Wave 32 bit/96 kHz
  • Light de-Clicking with ClickRepair, significant clicks manually removing, no De-Noising

You hear some clicks and pops here and there?
Who cares?
I better let some light anomalies instead of destroying the music.
Enjoy the music, not the ticks & pops.

  • Converting Wave 32bit/96kHz -> Flac 24bit/96kHz: Twisted Wave
  • Artwork: Sony Alpha 350, Epson Perfection V750 Pro, Photoshop CS 5.5

If you like what i do, please consider that a little donation would be very appreciate.
I reinvest all donations in maintenance of my rig, for purchasing cleaning solutions and, most important of all, purchasing of new vinyls.
Click on the “Donate”-button.
Thank you very much !

Download from FileFactory
2 archives

PW: LaWally

10 thoughts on “HD-Vinyl 24/96 (Schwann) Felix Mendelssohn-Bartholdy – Piano concerto for 2 Pianos (Bros. Paratore)

  1. Dear Whatever,

    I recently took up a subscription with Filesonic in order to keep up with your uploads. However, their quality of service is downright disappointing: the downloads during particular time zones and the weekends are slow, uneven and unstable. This should be taken into account by you since you seem to be cooperating with them. The erasure of your material from Hotfile is truly sad and unacceptable, nevertheless the people who follow you and are urged to take up premium memberships deserve better as well.
    As always, congratulations on your excellent site.
    Warm greetings.

  2. Thanks for the response. I’ve gotten this message periodically in the past and normally I do just wait, but it’s only happening for this one particular file. Anything else you’ve posted downloads fine, including the file #1 of this record. I’ll keep trying but it seems like something might be wrong with FF.

Leave a Reply