HD-Vinyl 24/96 (Supraphon) Hector Berlioz – Ouvertures (Vronsky)

front-small-boxset Many thanks to Tovarnik for this amazing rare record

Composer: Hector Berlioz
Orchestra: Brno State Philarmonic Orchestra
Conductor: Petr Vronsky
Vinyl (1962)
Number of Discs: 1
Format: Flac
Label: Turnabout
DR-Analysis: DR 13
Size: 1.29 GB
Scan: yes
Server: FileFactory


 Analyzed folder: /96k Berlioz – Ouvertures – Vronsky
 DR        Peak        RMS        Filename
 DR13        -1.58 dB     -19.86 dB     A1 Benvenuto Cellini.aif
 DR13        -1.01 dB     -20.73 dB     A2 Rob Roy.aif
 DR13        -1.01 dB     -19.16 dB     B1 Le Roi Lear.aif
 DR13        -1.52 dB     -20.03 dB     B2 Le Corsair.aif
 Number of files:    4
 Official DR value:    DR13


Ripping Info


If You hear some clicks and pops here and there, Who cares?
Id rather have a few light anomalies instead of destroying the music.
Enjoy the music, not the ticks & pops.
My rips are almost rough rips.

  • Software: iZotope RX 4 Advanced, Adobe Audition CS 5.5, Twisted Wave 1.9
  • Super light de-clicking with iZotope, significant clicks manually removing, no de-noising
  • DR-Analisys before converting to Flac
  • Converting Wave -> Flac: Twisted Wave 1.9
  • Artwork: Sony Alpha 350, Epson Perfection V750 Pro, Photoshop CS 5.5

If you like what i do, please consider that a little donation would be very appreciate.
I reinvest all donations in maintenance of my rig, for purchasing cleaning solutions and, most important of all, purchasing of new vinyls.
Click on the “Donate”-button.

Thank you very much !

Download from FileFactory
3 archives
PW: LaWally


10 thoughts on “HD-Vinyl 24/96 (Supraphon) Hector Berlioz – Ouvertures (Vronsky)

    • Isaiah,
      with all kindness and no sarcasm: scan this website and see how many pieces: operas, Requiem, and orchestral works Rach has presented by Berlioz.
      Possibly the only comment he could do is with reference to his Hi Def process. Or possibly about the BSPO & Vronsky?

      Just enjoy the laborious work . Personally, I like Alf’s comments too, but his production of Hi Def Vinyls has been as laborious as a one-armed wall-paper-hanger.
      Luv you Isaiah;
      The music will soothe your mind and heart.

  1. Great dynamics in this rip I can feel the orchestra playing in front of me. Big sound!!!! Lovely , thanks you so muuuuuuuuch.

Leave a Reply