HD-Vinyl 24/96 (The Record Society) Chamber Music – Soloists Of The Berlin Philarmonic Orchestra

front-small-boxset
All thanks for this go to
Lemarquis

Composer: Michael Haydn, Joseph Haydn, Franz Schubert, Ignaz Pleyel, Gioacchino Rossini
Performer: Soloists Of The Berlin Philarmonic Orchestra
Vinyl 19??
Number of Discs: 1
Format: Flac
Label: The Record Society
DR-Analysis: DR14
Size: 1.03 GB
Scan: yes
Server:
FF


———————————————————————————————-
Analyzed folder: /96k Various – Chamber Music – Soloists Of The Berlin Philarmonic Orchestra
———————————————————————————————-
DR        Peak        RMS        Filename
———————————————————————————————-
DR15        -2.10 dB     -20.55 dB     A1 Michael Haydn – Quartet in D-Major for Flute, Violin, Viola, Cello.aif
DR13        -2.46 dB     -19.40 dB     A2 Joseph Haydn – Divertimento in B-flat-Major for Oboe, Violin, Viola, Cello.aif
DR16        -1.94 dB     -22.24 dB     A3 Franz Schubert – Trio in B-flat-Major for Violin, Viola, Cello.aif
DR14        -1.93 dB     -21.72 dB     B1 Ignaz Pleyel – Quartet No. 2 in B-flat-Major for Oboe, Violin, Viola, Cello Op. 20.aif
DR14        -0.70 dB     -20.80 dB     B2 Gioacchino Rossini – Quartet in B-flat-Major for Flute, Violin, Viola, Cello.aif
———————————————————————————————-
Number of files:    5
Official DR value:    DR14
==============================================================================================

 

Ripping Info

Monitoring

  • Software: iZotope RX 4 Advanced, Adobe Audition CS 5.5, Twisted Wave 1.9
  • Super light de-clicking with iZotope, significant clicks manually removing, no de-noising
  • DR-Analisys before converting to Flac
  • Converting Wave -> Flac: Twisted Wave 1.9
  • Artwork: Sony Alpha 350, Epson Perfection V750 Pro, Photoshop CS 5.5

DONATION !
If you like what i do, please consider that a little donation would be very appreciated.
I reinvest all donations in maintenance of my rig, for purchasing cleaning solutions and, most important of all, purchasing of new vinyls.
Click on the “Donate”-button. Thank you very much !

DL from FileFactory

PW: LaWally

9 thoughts on “HD-Vinyl 24/96 (The Record Society) Chamber Music – Soloists Of The Berlin Philarmonic Orchestra”

Leave a Reply