HD-Vinyl 24/96 (Turnabout) Carl Nielsen – Violin Concerto (Varga)

front-small-boxset
I love flea markets: sometimes you find absolutely rare gems for a penny and in almost perfect shape – got this one for 50 cents –
C’mon friends…and “look” how great Mono can sound
Reposted, now with FF links

# Composer: Carl Nielsen
# Performer: Tibor Varga

# Orchestra: Royal Danish Orchestra
# Conductor: Jerzy Semkow

# Vinyl (1966)

# Number of Discs: 1

# Format: Flac

# Label: Turnabout

# DR-Analysis: DR 13
# ASIN CD: never on CD ? not found

# Size: 386 MB

# Scan: yes

# Server:
FileFactory

 

Carl Nielsen’s Concerto for Violin and orchestra, op. 33 was written for Hungarian violinist Dr. Emil Telmányi, Nielsen’s son-in-law, in 1911.

The Concerto was not an easy assignment for Nielsen. He began writing it in the summer of 1911 in Bergen, Norway, where he was spending some time at the invitation of Nina Grieg. It progressed with some difficulty as Nielsen, now back in his native Denmark, commented that the concerto “has to be good music, and yet always make allowances for the activity of the solo instrument in the best light, that is rich in content, popular and dazzling without becoming superficial.” In fact, he did not complete it until mid-December.

The first performance followed on 28 February 1912, the same night as the first performance of Nielsen’s 3rd Symphony. Carl Nielsen himself conducted the Royal Danish Orchestra at the Odd Fellows Mansion in Copenhagen with Peder Møller, Nielsen’s preferred virtuoso, as soloist. Nielsen spoke of the “great enthusiasm” with which the concerto was received but in fact the press commented above all on the masterly performance of Møller. Robert Henriques, in his extremely positive review, noted: “The Violin Concerto is a very significant work which will gain every time it is heard, because of course one only gradually becomes aware of all the brilliant details.” He saw the concert, which had also included Nielsen’s third symphony, as a demonstration of the composer’s “rare talent,” commenting that he was “on the true road towards the great goals he has set himself.” It became something of a landmark for Nielsen who wrote of his overwhelming “Erfolg” (success). The concerto continued to be received with enthusiasm as it was performed on several occasions over the following years, not only in Denmark but also in Gothenburg and Stockholm, always with Møller as soloist.

Unlike Nielsen’s later works, the concerto has a distinct, melody-oriented Neo-Classical structure. Unusually, there are three movements. The calm “Praeludium” is followed by a catching tune for the orchestra providing opportunities for tricks by the violin. The long, slow Adagio leads to the final Scherzo which, as Nielsen commented, “renounces everything that might dazzle or impress.

———————————————————————————————-
 Analyzed folder: /96kNie_VioCo_Var/96k Nielsen – Violin Concerto – Varga
———————————————————————————————-
 DR        Peak        RMS        Filename
———————————————————————————————-
 DR13        -1.62 dB     -19.50 dB     A Nielsen, Concerto for Violin and Orchestra, Op. 33 – 1 Praeludium. Allegro cavalleresco.wav
 DR13        -5.89 dB     -24.37 dB     B1 Nielsen, Concerto for Violin and Orchestra, Op. 33 – Poco Adagio.wav
 DR14        -1.60 dB     -21.09 dB     B2 Nielsen, Concerto for Violin and Orchestra, Op. 33 – Rondo. Allegretto scherzando.wav
———————————————————————————————-
 Number of files:    3
 Official DR value:    DR13
==============================================================================================

Ripping Infos

TT: Clearaudio Champion Level II + Special Edition Denon DL 103 –> Clearaudio Smartphono
TT: Pro-Ject RPM 6 SB + Sumiko Evolution III –> Pro-Ject Phono Box II
Pre Amp: Unison Research Unico Pre (Tube)
Finals: Opera Consonance 9.9 Mono (Tube)
Speakers: Dali Helikon 400
Rec Software: Twisted Wave 1.9 – Adobe Audition CS 5.5 —> Wave 24/96
Light De-Clicking (if needed) on Audition, significant clicks manually removing, no De-Noising
Convert —> Flac 24/96: Twisted Wave
Artwork: Sony Alpha 350, Photoshop CS 5.5

DONATION !
If you like what i do, please consider that a little donation would be very appreciate.
I reinvest all donations in maintenance of my rig, for purchasing cleaning solutions and, most important of all, purchasing of new vinyls.
Click on the “Donate”-button. Thank you very much !

Download from FileFactory
PW: LaWally

7 thoughts on “HD-Vinyl 24/96 (Turnabout) Carl Nielsen – Violin Concerto (Varga)”

Leave a Reply