HD-Vinyl 24/96 (Turnabout) WAM – Piano Concerto No. 22 (Brendel)

front-small-boxset Many thanks to Jean-Luc for this precious gem
Brendel has given us some distinguished Mozart recordings over the years, including concerto collaborations with Marriner/ASMF and more recently with Mackerras (the latter of which I have not heard). But a case can be made that his earliest efforts from the 60s convey a freshness and enthusiasm that he only fitfully recaptured later in his career. Though recording and ensemble playing call for some tolerance, those prepared to listen past some poorly tuned winds and occasionally harsh treble frequencies will be treated to some exquisite pianism. Brendel at his best.

Composer: Wolfgang Amadeus Mozart
Performer: Alfred Brendel
Orchestra: Vienna Chamber Orchestra
Conductor: Paul Angerer
Vinyl (1959)
Number of Discs: 1
Format: Flac
Label: Turnabout
DR-Analysis: DR 14
Size: 911 MB
Scan: yes
Server: FileFactory



  Concerto No. 22 In E Flat Major For Piano And Orchestra, K. 482  
A1 Allegro  
A2 Andante  
B1 Allegro  
B2 Rondo For Piano And Orchestra In D Major, K. 382


Analyzed folder: /96k WAM – Piaco Concerto 22 – Brendel
DR        Peak        RMS        Filename
DR12        -0.87 dB     -17.69 dB     A1 Piano Concerto No. 22 K.482 – Allegro.aif
DR14        -4.30 dB     -23.34 dB     A2 Piano Concerto No. 22 K.482 – Andante.aif
DR13        -1.53 dB     -19.91 dB     B1 Piano Concerto No. 22 K.482 – Allegro.aif
DR16        -2.68 dB     -24.11 dB     B2 Rondo For Piano And Orchestra K.382.aif
Number of files:    4
Official DR value:    DR14


  • Composed By – Wolfgang Amadeus Mozart
  • Conductor – Paul Angerer
  • Orchestra – Vienna Chamber Orchestra
  • Piano – Alfred Brendel

Ripping Info


  • Software: iZotope RX 4 Advanced, Adobe Audition CS 5.5, Twisted Wave 1.9
  • Super light de-clicking with iZotope, significant clicks manually removing, no de-noising
  • DR-Analisys before converting to Flac
  • Converting Wave -> Flac: Twisted Wave 1.9
  • Artwork: Sony Alpha 350, Epson Perfection V750 Pro, Photoshop CS 5.5

If you like what i do, please consider that a little donation would be very appreciate.
I reinvest all donations in maintenance of my rig, for purchasing cleaning solutions and, most important of all, purchasing of new vinyls.
Click on the “Donate”-button.

Thank you very much !

Download from FileFactory
2 archives
PW: LaWally


9 thoughts on “HD-Vinyl 24/96 (Turnabout) WAM – Piano Concerto No. 22 (Brendel)

  1. Mozart + Brendel … always a joy. Although the strings sound a little ‘thin’ here, the rest of the orchestra sounds quite full.
    Beautiful playing from Brendel as usual!
    Thanks to Jean-Luc pour le disque and to Alf for another fine transfer 🙂

Leave a Reply