HD-Vinyl 24/96 (Ursina Motette) The World’s Largest Church Organ In Passau Cathedral

front-small-boxsetPlease enjoy the world’s largest church organ in the world, from the beautiful St. Steven Cathedral, Passau, Germany.

# Composer: Frescobaldi, Schuster, Bach, Reger, Muffat
# Performer: Walther R. Schuster
Vinyl (1983)
Number of Discs: 2
Format: Flac
Label: Ursina Motette
DR-Analysis: DR 12
Size: 1.68 GB
Scan: yes
Server: FileFactory

Analyzed folder: /96k The World’s Largest Church Organ In Passau Cathedral
DR        Peak        RMS        Filename
DR12        -0.64 dB     -15.76 dB     A1 JSB – Preludium And Fugue C-Major, BWV 547.aif
DR12        -1.44 dB     -19.64 dB     A2 Muffat – Toccata Octava, from ‘Apparatus Musico.Organisticus’.aif
DR13        -0.59 dB     -18.86 dB     B Schuster – Free Improvisation ‘Toccata, Trio And Fugue’.aif
DR14        -0.55 dB     -19.86 dB     C Reger – 2nd Sonata D-Minor, Op. 60 – Improvisation, Invocation.aif
DR11        -0.62 dB     -17.18 dB     D1 Muffat – Toccata Undecima, from ‘Apparatus Musico-Organisticus’.aif
DR12        -1.53 dB     -18.52 dB     D2 Frescobaldi – Canzona Secundi Toni.aif
Number of files:    6
Official DR value:    DR12


Ripping Info


If You hear some clicks and pops here and there, Who cares?
Id rather have a few light anomalies instead of destroying the music.
Enjoy the music, not the ticks & pops.
My rips are almost rough rips.

  • Software: iZotope RX 4 Advanced, Adobe Audition CS 5.5, Twisted Wave 1.9
  • Super light de-clicking with iZotope, significant clicks manually removing, no de-noising
  • DR-Analisys before converting to Flac
  • Converting Wave -> Flac: Twisted Wave 1.9
  • Artwork: Sony Alpha 350, Epson Perfection V750 Pro, Photoshop CS 5.5

If you like what i do, please consider that a little donation would be very appreciate.
I reinvest all donations in maintenance of my rig, for purchasing cleaning solutions and, most important of all, purchasing of new vinyls.
Click on the “Donate”-button.

Thank you very much !

Download from FileFactory
4 archives
PW: LaWally


13 thoughts on “HD-Vinyl 24/96 (Ursina Motette) The World’s Largest Church Organ In Passau Cathedral

Leave a Reply