HD-Vinyl 24/96 (World Record Club) Franz Schubert – Richter Plays Schubert

All thanks for this go to Lemarquis

In the world of great pianos sonatas by composers ranging from Beethoven to Prokofiev, Schubert’s 21 Sonatas are too often neglected. Schubert’s late piano sonatas are some of the greatest piano compositions and no pianist helped us realize this more than Sviatoslav Richter. No pianist has blended the classical, melodic, sensitive and dark elements to be found in Schubert’s music better than he did. Richter performed over half of the sonatas, and here he plays the sonata in A-Major D. 664. In addition the wonderful ‘Wanderer’ fantasy.

Composer: Franz Schubert
Performer: Sviatoslav
Vinyl 1963
Number of discs: 1
Format: Flac
Label: World Record Club
DR 15
Size: 901 MB
Scan: yes
Server: FF


A Schubert: Fantasia In C, D.760, “Wanderer” 20:38
  Sonata In A Major, D.664  
B1 Allegro Moderato 11:43
B2 Andante 6:31
B3 Allegro 6:27


Analyzed folder: /96k Richter Plays Schubert
DR        Peak        RMS        Filename
DR12        -0.75 dB     -17.34 dB     A  Schubert- Fantasia In C, D.760, ‘Wanderer’.aif
DR16        -0.75 dB     -23.17 dB     B1 Sonata In A Major, D.664 – Allegro Moderato.aif
DR20        -6.27 dB     -31.93 dB     B2 Sonata In A Major, D.664 – Andante.aif
DR13        -1.85 dB     -20.04 dB     B3 Sonata In A Major, D.664 – Allegro.aif
Number of files:    4
Official DR value:    DR15

Ripping Info


  • Software: iZotope RX 4 Advanced, Adobe Audition CS 5.5, Twisted Wave 1.9
  • Super light de-clicking with iZotope, significant clicks manually removing, no de-noising
  • DR-Analisys before converting to Flac
  • Converting Wave -> Flac: Twisted Wave 1.9
  • Artwork: Sony Alpha 350, Epson Perfection V750 Pro, Photoshop CS 5.5

If you like what i do, please consider that a little donation would be very appreciated.
I reinvest all donations in maintenance of my rig, for purchasing cleaning solutions and, most important of all, purchasing of new vinyls.
Click on the “Donate”-button.

Thank you very much !

DL from FileFactory

PW: LaWally

17 thoughts on “HD-Vinyl 24/96 (World Record Club) Franz Schubert – Richter Plays Schubert

  1. Was für eine tolle Aufnahme! Eine der besten Klaviersonaten. Sehr bewegend und schön. Tolle Interpretation und tolle Klangqualität. Vielen herzlichen Dank!!!!

Leave a Reply