HD-Vinyl 96/24 (CBS) Modest Mussorgsky – Pictures at an exhibition (Szell)

front_small_boxset
Maybe you know this: you find, totally unespected, a wonderful performance, unknown to you…and you realise, the music technicians had a bad day on recording. Light distortions on highs.

# Composer: Modest Pjotr Mussorgsky, Anatole Liadow
# Orchestra: Cleveland Orchestra
# Conductor: Georg Szell
# Vinyl (1973)

# Number of Discs: 1
# Format: Flac
# Label: CBS
# DR-Analysis: DR 12
# ASIN CD: B000003CSH

# Size: 818 MB
# Scan: yes
# Server: FileFactory

 

 

  Modest Mussorgsky: Pictures At An Exhibition
A1 Promenade 1:42  
A2 I. Gnomus 2:18  
A3 Promenade 0:55  
A4 II. Il Vecchio Castello 4:29  
A5 Promenade 0:32  
A6 III. Tuileries 1:01  
A7 IV. Bydlo 2:35  
A8 Promenade 0:37  
A9 V. Ballet Des Poussins Dans Leurs Coques 1:11  
A10 VI. Samuel Goldenberg Et Schmuyle 2:09  
B1 VII. Limoges, Le Marché 1:24  
B2 VII. Catacombae. Sepulcrum Romanum 1:43  
B3 Cum Mortuis In Lingua Mortua 1:39  
B4 IX. La Cabane Sur Des Pattes De Poule 3:20  
B5 X. La Grande Porte De Kiev 5:28  
   
B6 Anatole Liadow: The Enchanted Lake, Op. 62 3:38

———————————————————————————————-
Analyzed folder: /96k Mussorgsky – Pictures At An Exhibition – Szell
———————————————————————————————-
DR        Peak        RMS        Filename
———————————————————————————————-
DR11        -2.01 dB     -17.04 dB     A1 Promenade.wav
DR14        -1.61 dB     -20.02 dB     A2 Gnomus.wav
DR10        -17.29 dB     -31.90 dB     A3 Promenade.wav
DR13        -4.23 dB     -25.18 dB     A4 Il Vecchio Castello.wav
DR10        -4.07 dB     -17.55 dB     A5 Promenade.wav
DR14        -4.63 dB     -25.34 dB     A6 Tuileries.wav
DR11        -1.54 dB     -17.07 dB     A7 Bydlo.wav
DR10        -6.84 dB     -21.45 dB     A8 Promenade.wav
DR13        -7.68 dB     -26.47 dB     A9 Ballet Des Poussins Dans Leurs Coques.wav
DR12        -2.08 dB     -18.83 dB     A10 Samuel Goldenberg Et Schmuyle.wav
DR10        -2.24 dB     -16.03 dB     B1 Limoges, Le Marche’.wav
DR11        -1.37 dB     -16.89 dB     B2 Catacombae. Sepulcrum Romanum.wav
DR11        -14.00 dB     -29.63 dB     B3 Cum Mortuis In Lingua Mortua.wav
DR11        -1.06 dB     -16.45 dB     B4 La Cabane Sur Des Pattes De Poule.wav
DR11        -0.73 dB     -15.11 dB     B5 La Grande Porte De Kiev.wav
DR14        -1.16 dB     -20.60 dB     B6 Anatole Liadow – The Enchanted Lake, Op. 62.wav
———————————————————————————————-
Number of files:    16
Official DR value:    DR12
==============================================================================================

Ripping Infos

  • RCM: Okki Nokki
  • TT: Clearaudio Champion Level II
  • Cartridge: Sumiko Black Bird
  • Phono amp: Pro-Ject Phono Box RS
  • ADC/DAC: RME Fireface UC
  • Pre Amp: Unison Research Unico Pre (Tube)
  • Finals: Opera Consonance 9.9 Mono (Tube)
  • Speakers: Dali Helikon 400
  • Connections: MIT Terminator, Audioquest Emerald, Audioquest Quartz
  • Software: iZotope RX Advanced v2.02, Adobe Audition CS 5.5, Twisted Wave 1.9
  • Light de-Clicking with ClickRepair, significant clicks manually removing, no De-Noising

If You hear some clicks and pops here and there, Who cares?
Id rather have a few light anomalies instead of destroying the music. Enjoy the music, not the ticks & pops.

  • DR-Analisys before converting to Flac
  • Converting Wave -> Flac: Twisted Wave 1.9
  • Artwork: Sony Alpha 350, Epson Perfection V750 Pro, Photoshop CS 5.5

DONATION !
If you like what i do, please consider that a little donation would be very appreciate. I reinvest all donations in maintenance of my rig, for purchasing cleaning solutions and, most important of all, purchasing of new vinyls.
Click on the “Donate”-button. Thank you very much !


Download from FileFactory

2 archives
PW: LaWally

Leave a comment ?

11 Comments.

  1. Thanks Rachmaninov

  2. Thank you very much for this great post!

  3. My God! Szell is my best love!
    Thank you very much!

  4. Thank you very much.

    Szell is great!!!

  5. thanks
    Original
    CBS 61845 Szell: Mussorgsky-Ravel: Pictures; Liadov: Enchanted Lake – Cleveland Orch 1963

    Mussorgsky Bilder Einer Ausstellung / Liadow Der Zaubersee from the Cleveland Orchestra conducted by George Szell. CBS Records 61845, German pressing 1978

  6. Thank you very much!

  7. Another Gem! from a grateful heart.

    Bob

  8. That Liadow – beautiful. Thank You.

  9. Thank you for this LP, dear Alfredo!
    I appreciate this recording of the Pictures and think that it is at least equal to that of Reiner or Karajan. Well, it is hard do be amazed with the Pictures now, since there is a deposit of them presented by you in the best quality. I was just interested with the Enchanted Lake by Lyadov, as well, and was not dissappoited at all. This is a great and thrilling piece, just fascinating.
    Also, Szell is one of the best American conductors, maybe rivalled only by abovementioned Reiner. I think, Szell leaves behind both Bernstein and Ormandy. His Cleveland Orchestra did many of legendary recordings of the 20th century.
    So, I’m very indebted for you for sharing this great recording with us!

Leave a Comment