HD-Vinyl 96/24 (Decca) – O. Respighi – Fountains/Pines of Rome (Munch)

Reposted, now with FF links

# Composer: Ottorino Respighi
# Orchestra: New Philarmonia Orchestra
# Conductor: Charles Munch
# Vinyl (1967)
# Number of Discs: 1
# Format: FLAC
# Label: Decca Phase 4
# DR-Analysis: DR 12
# ASIN: not found
# Size: 803 MB
# Scan: yes
# Server: FileFactory

 Analyzed folder: /Volumes/HDMUSIC/ Work on HiResMusic/96k Respighi – Pines-Fountains/96k Respighi – Pines-Fountains
 DR        Peak        RMS        Filename
 DR11        -1.33 dB     -14.71 dB     A1 The Pines of Villa Borghese (I pini di Villa Borghese).wav
 DR12        -1.45 dB     -19.26 dB     A2 The Pines near a Catacomb (Pini presso una catacomba).wav
 DR14        -2.29 dB     -22.75 dB     A3 The Pines of the Janiculum (I pini del Gianicolo).wav
 DR10        -1.07 dB     -16.00 dB     A4 The Pines of the Appian Way (I pini della Via Appia).wav
 DR12        -11.35 dB     -29.01 dB     B1 The Valle Giulia Fountain at Daybreak (La fontana die Valle Giulia all’alba).wav
 DR10        -1.65 dB     -16.36 dB     B2 The Triton Fountain in the Morning (La Fontana del Tritone al mattino).wav
 DR9        -1.54 dB     -14.18 dB     B3 The Trevi Fountain at Midday (La Fontana di Trevi al meriggio).wav
 DR16        -6.47 dB     -29.04 dB     B4 The Villa Medici Fountain at Sunset (La Fontana di Villa Medici al tramonto).wav
 Number of files:    8
 Official DR value:    DR12

Ripping Infos

  • RCM: Okki Nokki
  • TT: Clearaudio Champion Level II
  • System: Special Edition Denon DL 103
  • Phono stage: Pro-Ject Phono Box II
  • Pre Amp: Unison Research Unico Pre (Tube)
  • Finals: Opera Consonance 9.9 Mono (Tube)
  • Speakers: Dali Helikon 400
  • Connections: MIT Terminator, Audioquest Emerald, Audioquest Quartz
  • Software: iZotope RX Advanced v2.02, Adobe Audition CS 5.5, Twisted Wave 1.9
  • Light de-Clicking with ClickRepair, significant clicks manually removing, no De-Noising

If You hear some clicks and pops here and there, Who cares?
Id rather have a few light anomalies instead of destroying the music. Enjoy the music, not the ticks & pops.

  • DR-Analisys before converting to Flac
  • Converting Wave -> Flac: Twisted Wave 1.9
  • Artwork: Sony Alpha 350, Epson Perfection V750 Pro, Photoshop CS 5.5

If you like what i do, please consider that a little donation would be very appreciate. I reinvest all donations in maintenance of my rig, for purchasing cleaning solutions and, most important of all, purchasing of new vinyls.
Click on the “Donate”-button. Thank you very much !

Download fro
m FileFactory
3 archives
PW: LaWally

14 thoughts on “HD-Vinyl 96/24 (Decca) – O. Respighi – Fountains/Pines of Rome (Munch)

    • Hi Michel…after the “earthquake” our friend Whatever had to repost tons of music and i wanted to wait a little. You know, in the time i post 1-2 rips he posts 100-200 and nobody see my music 😉 So now i think, there is a little calm again and we go on with our new/old life, here on the paradise of classical music !

Leave a Reply