HD-Vinyl 96/24 (DGG) Mussorgsky/Ravel – Pictures at an Exhibition/Bolero (Karajan)

front_small_boxset
“Gift” new rared and uploaded

# Composer: Modest Mussorgsky, Maurice Ravel
# Orchestra:  Berlin Philarmonic Orchestra
# Conductor: Herbert von Karajan
# Vinyl (1966) + gift
# Format: Flac
# Label: Deutsche Grammophon Gesellschaft
# DR-Analysis: DR 12
# ASIN CD:
B000001GQH
# Size: 957 MB (+ 441 MB)
# Scan: yes
# Server: FF

This has long been one of my favourite performances of “Pictures”. The sound quality from the 60s recording is very good indeed. I find the pacing to be just right for this extraordinary work. I have listened to a number of versions over the years, including more recent recordings – including the Sinopoli version on DG, and a London Symphony version, as well as a few others that I have forgotten – none of them made my spine tingle like this one has.

Of course, Reiner’s “Pics” are from another planet…

It is interesting that the Austrian Karajan and his German Berlin Phil. Orch. was so competent in the French and Russian repertoire. In all Karajan’s programing of more “serious” and more Teutonic works by Beethoven, Brahms ect.; it is ironic that Ravel’s “Bolero” is Karajan at his best-this rendition is very intense and at once very passionate. Likewise, Mussorgsky/Ravel’s “Pictures at an Exhibition” is also very vivid and sonorous.

“Pictures at an Exhibition” was one of my first introductions to “Classical” music when I was a child. It is an outstanding work, that captures the mysterious and very Russian essence of Mussorgsky; but also displays Ravel’s orchestral mastery and French sensibility.

 

———————————————————————————————-
Analyzed folder: /Users/alfredo/Desktop/ HiResMusic/96kMM_Pix_Kar/96k Mussorgsky – Pictures At An Exhibition – Karajan
———————————————————————————————-
DR        Peak        RMS        Filename
———————————————————————————————-
DR11        -3.50 dB     -18.36 dB     A1 Promenade. Allegro Giusto, Nel Modo Russico, Senza Allegrezza, Ma Poco Sostenuto.wav
DR13        -2.76 dB     -20.35 dB     A10 Samuel Goldenberg Und Schmuyle. Andante.wav
DR12        -3.80 dB     -20.17 dB     A11 Limoges, Le Marche. Allegretto Vivo, Sempre Scherzando.wav
DR11        -0.32 dB     -17.67 dB     A12 Catacombae-Sepulchrum Romanum. Largo.wav
DR11        -20.71 dB     -37.15 dB     A13 Cum Mortuis In Lingua Mortua. Andante Non Troppo, Con Lamento.wav
DR13        -1.46 dB     -20.03 dB     A14 La Cabane De Baba Yaga Sur Des Pattes De Poule. Allegro Con Brio, Feroce – Andante Mosso – Allegro Molto.wav
DR11        -0.91 dB     -15.34 dB     A15 La Grand Porte De Kiev. Allegro Alle Breve. Maestoso. Con Grandezza.wav
DR14        -0.89 dB     -19.76 dB     A2 Gnomus. Vivo.wav
DR10        -18.53 dB     -34.87 dB     A3 Promenade. Moderato Comodo E Con Delicatezza.wav
DR13        -12.37 dB     -31.51 dB     A4 Il Vecchio Castello. Andante.wav
DR10        -5.23 dB     -20.45 dB     A5 Promenade. Moderato Non Tanto, Pesante.wav
DR12        -6.32 dB     -28.11 dB     A6 Tuileries. Allegretto Non Troppo, Capriccioso.wav
DR11        -2.76 dB     -18.94 dB     A7 Bydlo. Sempre Moderato, Pesante.wav
DR11        -8.13 dB     -24.78 dB     A8 Promenade. Tranquillo.wav
DR13        -13.86 dB     -31.90 dB     A9 Ballet Des Petits Poussins Dans Leurs Coques. Scherzino, Vivo Leggiero.wav
DR14        -0.92 dB     -21.29 dB     B3 Bolero. Tempo Di Bolero Moderato Assai.wav
———————————————————————————————-
Number of files:    16
Official DR value:    DR12
==============================================================================================

Credits

  • Composed By – Maurice Ravel, Modest Mussorgsky
  • Conductor – Herbert von Karajan
  • Cover, Illustration – Michel Herve
  • Engineer – Günther Hermanns
  • Instrumentation By – Maurice Ravel
  • Liner Notes [German] – Karl Schumann
  • Orchestra – Berliner Philharmoniker
  • Producer – Otto Gerdes
  • Recording Supervisor – Hans Weber, Otto Ernst Wohlert

 

Ripping Infos

  • RCM: Okki Nokki
  • TT: Clearaudio Champion Level II
  • System: Special Edition Denon DL 103
  • Phono stage: Pro-Ject Phono Box II
  • Pre Amp: Unison Research Unico Pre (Tube)
  • ADC/DAC: RME Fireface UC
  • Finals: Opera Consonance 9.9 Mono (Tube)
  • Speakers: Dali Helikon 400
  • Connections: MIT Terminator, Audioquest Emerald, Audioquest Quartz
  • Software: iZotope RX Advanced v2.02, Adobe Audition CS 5.5, Twisted Wave 1.9
  • Light de-Clicking with ClickRepair, significant clicks manually removing, no De-Noising

If You hear some clicks and pops here and there,  Who cares?
Id rather have a few light anomalies instead of destroying the music. Enjoy the music, not the ticks & pops.

  • DR-Analisys before converting to Flac
  • Converting Wave -> Flac: Twisted Wave 1.9
  • Artwork: Sony Alpha 350, Epson Perfection V750 Pro, Photoshop CS 5.5

DONATION !
If you like what i do, please consider that a little donation would be very appreciate. I reinvest all donations in maintenance of my rig, for purchasing cleaning solutions and, most important of all, purchasing of new vinyls.
Click on the “Donate”-button. Thank you very much !


Download fro
m FileFactory

3 archives
PW: LaWally

cover-small-dvd

And here, my friends, a gift for you all…a m4v of  Mussorgsky’s “Pictures…” with Karajan, conducting the Berlin Philarmonic Orchestra, 1986

2 archives
no
PW

Leave a comment ?

17 Comments.

  1. Many thanks and merry christmas!

  2. Merry Christmas and Happy New Year!

  3. When I extract the DVD, the file VTS_03_1.vob fails to extract according to a “CRC” error in “part2” of the archives. I’ve downloaded THAT part 3 times till now, on the assumption that the download failed at some point or something, but I still got the same error. Could you please check the archives on your end and make sure that the problem isn’t in the archives themselves?!
    And thank you for the Vinyl, great quality recording. Merry Christmas. 🙂

  4. I am very familiar with HvK’s discography but up until now I’d somehow missed this classic Mussorgsky performance.

    Thanks Rach.

  5. Dear Rach, can you look at (part 6) of video? If what is states needs waiting, I’ll wait…( though waiting since spring). Thanks for everything you do!

    • My dear, I don’t have the files anymore on my mac and also not the program, what I used to make the archives. But I still have the DVD…only I need to find again a good program to use for making new archives….this will take some days/weeks

      • Thank you very much Rach for responding! I did not mean to disturb you that much, really. …only if you find time… I do understand how busy you are doing so much for US! Thanks again and accept my deep respect! Health and peace!

      • Wow! What a day and what an evening is gonna be!!! Many thanks! Hats off to YOU, Dear Rach! All the best!!!

  6. Thank You. Just another pleasure…

  7. This was very special. Thank you so much, Rach.

  8. @Rachmaninov, I have some LP’s that I haven’t seen on your blog and they could use some polishing. Some of them are in mint condition. Do you think I could record them and send you the raw medium so that it can be cleaned and published for downloading?

    By the way, how do you take the ideal cover shot with your camera? is there a specific Technic?

    • Friend, how do you think, we should handle this “thing” Do you want me to polish your rips, load on my servers and post them for you? If you think of a donation per rip, we could speak about…

  9. Thank you very much Rachmaninov!

Leave a Comment