HD-Vinyl 96/24 (DGG) Schumann/Tchaikowsky – Cello Concerto (Rostropovich)

Reposted, now with FF links

# Composer: Robert Schumann, Peter Tchaikowsky
# Performer: Mstislav Rostropovich
# Orchestra: Leningrad Philarmonic Orchestra
# Conductor: Gennadi Rozhdestvensky
# Vinyl (1966)
# Number of Discs: 1
# Format: Flac
# Label: Deutsche Grammophon Gesellschaft
# DR-Analysis: DR 14
# ASIN: not found
# Size: 870 MB
# Scan: yes
# Server: FileFactory

At his death on 27 April 2007, barely a month after his 80th birthday, the great cellist and conductor Mstislav Rostropovich was as well known as a defender of human and artistic freedom as for his musicianship.

In a lifetime of countless memorable performances, Rostropovich gave the premieres of Prokofiev’s second Cello Concerto in 1952, Shostakovich’s two Cello Concertos in 1959 and 1966, Britten’s Cello Symphony in 1964 and Bliss’s Cello Concerto in 1970. Some of the other composers Rostropovich inspired to enlarge the cello and orchestral repertoire with works specially composed and dedicated to him include, Berio, Bliss, Khachaturian, Lutoslawski, Bernstein, Pärt, Dutilleux, Messiaen, Schnittke, Shchedrin and MacMillan.

This genius of the cello left us 2007 April 27th. For the recent music newcomers this name is synonymous of a talented musician, but Rostropovich meant for the music much more than a privileged and sheer artist. His multiple activities as soloist performer and conductor ranked such historical achievements that hardly could be resumed in this little note.

His loss is extremely significant, due he embodied the goal of a total artist. Reader, thinker, and always worried by his country, he knew about so many unsaid details of the missed U.R.S.S, and his narrow collaboration with Dimitri Shostakovich make of him a essential part of the musical History of the last Century With his departure a cycle ends. Fortunately his enormous musical bequeath stand out through the years to come, as striking evidence of his egregious talent.

In my opinion Rostropovich is one of the best cellists that ever lived, and is my favorite cellist in most respects. His playing is technically clean and clear, while still being extremely musical. I know everyone has different opinions, but for what it’s worth I am a cello performance major. Although not all musicians will agree with my views, a huge number agree that Rostropovich is WELL worth the listen and was one of the best cellists of his time.

Analyzed folder: /96kRobSch_CeCon_Rost/96k Schumann – Cellokonzert Rostropovich
DR        Peak        RMS        Filename
DR13        -1.07 dB     -20.17 dB     A1 Schumann Cello Concerto – Nicht zu schnell.wav

DR13        -12.69 dB     -31.77 dB     A2 Schumann Cello Concerto – Langsam.wav
DR12        -0.81 dB     -18.09 dB     A3 Schumann Cello Concerto – Sehr lebhaft.wav
DR17        -1.16 dB     -24.76 dB     B Tchaikowsky Variations an a Rococo Theme.wav
Number of files:    4

Official DR value:    DR14

Ripping Infos

TT: Clearaudio Champion Level II + Special Edition Denon DL 103 –> Clearaudio Smartphono
TT: Pro-Ject RPM 6 SB + Sumiko Evolution III –> Pro-Ject Phono Box II
Pre Amp: Unison Research Unico Pre (Tube)
Finals: Opera Consonance 9.9 Mono (Tube)
Speakers: Dali Helikon 400
Rec Software: Twisted Wave 1.9 – Adobe Audition CS 5.5 —> Wave 24/96
Light De-Clicking (if needed) on Audition, significant clicks manually removing, no De-Noising
Convert —> Flac 24/96: Twisted Wave
Artwork: Sony Alpha 350, Photoshop CS 5.5

If you like what i do, please consider that a little donation would be very appreciate.
I reinvest all donations in maintenance of my rig, for purchasing cleaning solutions and, most important of all, purchasing of new vinyls.
Click on the “Donate”-button. Thank you very much !

Download from FileFactory
3 archives

PW: LaWally

12 thoughts on “HD-Vinyl 96/24 (DGG) Schumann/Tchaikowsky – Cello Concerto (Rostropovich)

  1. Thank you very much indeed. It took a while ofr me to listen to it, but, when I listened its not only great as a recording but also more full sounding than the CD version. So, thank you!

  2. Thank you very much. Did you note some crispy sounds around min 9, 11:30 and 11:45 of Nicht zu schnell Schumann Cello Concerto? Also around min 6 y following of Sehr Lebhaft….

      • Yes, I realize that, but those noises does not seem to originate from the vinyl, rather from sound processing and in this case you could do miracles. Thank you again for sharing that wonderful music…

        • I will check it, but at the time i’m very busy…look after it in some days, i will re-post it, so you know, some miracles have happened 8)

        • OK, i’ve listened to the tracks and I understand, what you mean. Me personally, I find it’s not too dramatic….maybe i have to wash the record again and longer and rip it again…but i can do this in the next days/weeks

Leave a Reply