HD-Vinyl 96/24 Mono (CBS) Sibelius/Walton – Violin Concertos (Francescatti)

# Composer: Jean Sibelius, William Walton
# Performer: Zino Francescatti
# Orchestra: New York Philarmonic Orchestra, Philadelphia Orchestra

# Conductor: Leonard Bernstein, Eugene Ormandy
# Vinyl (1965)
# Number of Discs: 1
# Format: Flac
# Label: CBS
# DR-Analysis: DR 14
# ASIN CD: not found

# Size: 567 MB
# Scan: yes
# Server: FF

“Known for his lyrical performance style and as a champion of contemporary violin music by such composers as Darius Milhaud, Leonard Bernstein, and Karol Szymanowski.” – Encyclopædia Britannica

“Francescatti’s playing was marked by a seemingly effortless technique, warmth of expression, and tonal elegance. “

“One of the great classical violinists of the twentieth century. Among his recordings are Saint-Saëns’s famous and popular Introduction and Rondo Capriccioso, with Leonard Bernstein conducting the New York Philharmonic.”

René-Charles “Zino” Francescatti (August 9, 1902 – September 17, 1991) was a French virtuoso violinist.

Zino Francescatti was born in Marseilles, to a musical family. Both parents were violinists. His father, who also played the cello, had studied with Camillo Sivori. Zino studied violin from age three and was quickly recognized as a child prodigy. He began performing at the age of five and made his debut at age 10, playing Beethoven’s Violin Concerto.

In 1927 he went to Paris to teach at the École Normale de Musique; he also conducted the Concerts Poulets. He made his first world tour in 1931 and his American debut with Sir John Barbirolli and the New York Philharmonic in 1939, playing Paganini’s Violin Concerto No. 1. His recording of the concerto is still regarded as one of the best. For three decades after 1945 he had an exceptionally impressive international career.

A violinist of outstanding technical ability, Francescatti played all of the great concerti. His performances of Mendelssohn’s Violin Concerto in E minor, Saint-Saëns Violin Concerto No. 3, Bruch’s Violin Concerto No. 1, and others, continue to be fondly remembered and highly regarded.

Francescatti made many renowned LPs, including a set of the complete Beethoven violin-piano sonatas with Robert Casadesus, a frequent musical collaborator of his. Both in concerts and on disc, he performed on the celebrated “Hart” Stradivarius of 1727. Upon his retirement in 1976, he sold the instrument and established the Zino Francescatti Foundation, to assist young violinists, in La Ciotat. In 1987 an international violin competition was organized in his honor in Aix-en-Provence.

He died in La Ciotat, Bouches-du-Rhône, France, aged 89.

 Analyzed folder: /Users/alfredo/Desktop/ HiResMusic/ Geladen aber nicht Online/96k Sibelius-Walton – Violin Concertos – Francescatti
 DR        Peak        RMS        Filename
 DR13        -0.76 dB     -18.72 dB     A1 Sibelius Violin Concerto In D Minor Op. 47 First Movement-Allegro Moderato.wav
 DR13        -0.42 dB     -18.80 dB     A2 Sibelius Violin Concerto In D Minor Op. 47 Second Movement-Adagio Di Molto.wav
 DR12        -0.28 dB     -17.32 dB     A3 Sibelius Violin Concerto In D Minor Op. 47 Third Movement- Allegro Ma Non Tanto.wav
 DR15        -1.04 dB     -20.47 dB     B1 Walton Violin Concerto – Andante tranquillo.wav
 DR16        -0.09 dB     -21.42 dB     B2 Walton Violin Concerto – Presto capriccioso alla napolitana – Trio (Canzonetta).wav
 DR16        -0.42 dB     -21.21 dB     B3 Walton Violin Concerto – Vivace.wav
 Number of files:    6
 Official DR value:    DR14

Ripping Infos

  • RCM: Okki Nokki
  • TT: Clearaudio Champion Level II
  • System: Special Edition Denon DL 103
  • Phono stage: Pro-Ject Phono Box II
  • Pre Amp: Unison Research Unico Pre (Tube)
  • ADC/DAC: RME Fireface UC
  • Finals: Opera Consonance 9.9 Mono (Tube)
  • Speakers: Dali Helikon 400
  • Connections: MIT Terminator, Audioquest Emerald, Audioquest Quartz
  • Software: iZotope RX Advanced v2.02, Adobe Audition CS 5.5, Twisted Wave 1.9
  • Light de-Clicking with ClickRepair, significant clicks manually removing, no De-Noising

If You hear some clicks and pops here and there, Who cares?
Id rather have a few light anomalies instead of destroying the music. Enjoy the music, not the ticks & pops.

  • DR-Analisys before converting to Flac
  • Converting Wave -> Flac: Twisted Wave 1.9
  • Artwork: Sony Alpha 350, Epson Perfection V750 Pro, Photoshop CS 5.5

If you like what i do, please consider that a little donation would be very appreciate. I reinvest all donations in maintenance of my rig, for purchasing cleaning solutions and, most important of all, purchasing of new vinyls.
Click on the “Donate”-button. Thank you very much !

Download from FileFactory
2 archives
PW: LaWally

6 thoughts on “HD-Vinyl 96/24 Mono (CBS) Sibelius/Walton – Violin Concertos (Francescatti)

  1. Rach is in mono audio? why if is from 1965? i know that im bored with the sound sorry.
    By the way, what happen with the USA pack operas? (not many launches in the last days).
    Hugs father.

    • Carlito, hola…
      I suppose, it is a 2nd pressing….could not find proper infos, maybe the recording is from somewhen in the fifties.
      But don’t care…enjoy the artistry of Monsieur Zino 😉

    • I’m very busy at this time…i post few ner rips, mostly I reup with new links or post rips, that I did in the last months.
      In the new year i start seriously with the operas from our friend from USA.

Leave a Reply