HD-Vinyl (Mono) 24/96 (DGG) Great Waltzes From Great Operas (Bamberg Symphony Orchestra/Fritz Lehmann)

Many thanks to our friend Jean-Luc for the vinyl

Composer: Jacques Offenbach, Peter Tchaikowsky, Richard Strauss, Charles Gounod, Engelbert Humperdinck
Orchestra: Bamberg Symphony Orchestra
Conductor: Fritz Lehmann
Vinyl (1959)
Number of discs: 1
Format: Flac
Label: DGG
DR 13
Size: 290 MB
Scan: yes
Server: FF



A1 “Hoffmanns Erzählungen” – Zwischenspiel Und Walzer

Composed By – Offenbach*

A2 “Eugen Onegin” – Walzer

Composed By – Tschaikowsky*

A3 “Hänsel Und Gretel” – Knusperwalzer

Composed By – Humperdinck*

B1 “Margarethe” – Faustwalzer

Composed By – Gounod*

B2 “Der Rosenkavalier” – Walzerfolgen 3. Akt

Composed By – Richard Strauss


Analyzed folder: /96k Great Waltzes From Great Operas
DR        Peak        RMS        Filename
DR15        -0.50 dB     -22.46 dB     A1 Offenbach – Intermezzo And Waltz from ‘Hoffmann’s Tales’.aif
DR14        -1.66 dB     -20.67 dB     A2 Tchaikowsky – Waltz from ‘Eugen Onegin’.aif
DR11        -0.80 dB     -18.39 dB     A3 Humperdinck – Crisp Roll From ‘Haensel And Gretel’.aif
DR13        -1.32 dB     -20.71 dB     B1 Gounod – Faustwaltz From ‘Margarethe’.aif
DR12        -2.47 dB     -19.78 dB     B2 Strauss – Waltzs Serie From ‘Der Rosenkavalier’.aif
Number of files:    5
Official DR value:    DR13


Ripping Info


  • Software: iZotope RX 4 Advanced, Adobe Audition CS 5.5, Twisted Wave 1.9
  • Super light de-clicking with iZotope, significant clicks manually removing, no de-noising
  • DR-Analisys before converting to Flac
  • Converting Wave -> Flac: Twisted Wave 1.9
  • Artwork: Sony Alpha 350, Epson Perfection V750 Pro, Photoshop CS 5.5

If you like what i do, please consider that a little donation would be very appreciated.
I reinvest all donations in maintenance of my rig, for purchasing cleaning solutions and, most important of all, purchasing of new vinyls.
Click on the “Donate”-button.

Thank you very much !

DL from FileFactory

PW: LaWally

7 thoughts on “HD-Vinyl (Mono) 24/96 (DGG) Great Waltzes From Great Operas (Bamberg Symphony Orchestra/Fritz Lehmann)

    • Is from you (maybe indirectly, as additional package) it came with a Karl Richter Archiv LP 😀
      Anyway, is a nice additional packaging 😀

Leave a Reply