HD-Vinyl (Mono) 24/96 (DGG) Sviatoslav Richter Plays Schumann


I’m just going to say: Wow. Beautiful. Magnificent. I do not know what more a fan of classical piano music could want! If you are just beginning to discover classical piano players, Richter ranks up there with the best of all time. Many would say he was above all the others. Technique, strength, passion–it is all here.

Composer: Robert Schumann
Performer: Sviatoslav Richter
Vinyl 1958/1963
Number of Discs: 1
Format: FLAC
Label: DGG
DR-Analysis: DR 13
Size: 433 MB
Scan: yes
Server: FF


———————————————————————————————-

Analyzed Folder: /96k (Mono) Schumann – Marsch, Waldszenen, Fantasiestuecke – Richter_dr.txt
———————————————————————————————-
DR Peak RMS Filename
———————————————————————————————-
DR13 -1.54 dB -18.70 dB A01 March No. 2 G-Minor.flac
DR12 -11.37 dB -28.74 dB A02 Waldszenen Op. 82 – Eintritt.flac
DR12 -4.66 dB -20.70 dB A03 Waldszenen Op. 82 – Jaeger Auf Der Lauer.flac
DR13 -14.14 dB -32.57 dB A04 Waldszenen Op. 82 – Einsame Blumen.flac
DR16 -7.12 dB -31.36 dB A05 Waldszenen Op. 82 – Verrufene Stelle.flac
DR11 -11.45 dB -26.05 dB A06 Waldszenen Op. 82 – Freundliche Landschaft.flac
DR15 -5.88 dB -26.15 dB A07 Waldszenen Op. 82 – Herberge.flac
DR13 -14.41 dB -34.28 dB A08 Waldszenen Op. 82 – Vogel Als Prophet.flac
DR11 -0.52 dB -15.20 dB A09 Waldszenen Op. 82 – Jagdlied.flac
DR12 -11.63 dB -28.09 dB A10 Waldszenen Op. 82 – Abschied.flac
DR12 -12.89 dB -29.51 dB B1 Fantasiestuecke, Op.12 – 1. Des Abends.flac
DR10 -0.67 dB -16.87 dB B2 Fantasiestuecke, Op.12 – 2. Aufschwung.flac
DR14 -11.94 dB -31.24 dB B3 Fantasiestuecke, Op.12 – 3. Warum.flac
DR13 -0.95 dB -19.06 dB B4 Fantasiestuecke, Op.12 – 5. In Der Nacht.flac
DR13 -3.35 dB -23.58 dB B5 Fantasiestuecke, Op.12 – 7. Traumes-Wirren.flac
DR13 -0.64 dB -18.33 dB B6 Fantasiestuecke, Op.12 – 8. Ende Vom Lied.flac

———————————————————————————————-
Number of Files: 16

Official DR Value: DR13
==============================================================================================

 

Ripping Info

Monitoring

A few words about the way i’ve been cleaning vinyl records and post-processing rips, since summer 2017: After washing and recording the vinyl, I use a kind of mixed cleaning of the rip, which consists of mostly manual rather than automatic de-clicking, (the latter only on unimportant passages, such as end of the groove, beginning and end of the songs, applause, speaking). I often leave the rips almost rough, de-clicking only the silences between the tracks. Never de-noising or/and EQ, as unfortunately some do. I prefer to hear a bit of quiet noises of the clean groove, that contain something of the music, rather than generate clinically clean files that may, eventually, sound a bit dead. If you do not agree, do not download my rips and buy instead digital files or CDs.
When I listen to music I “don’t hear” any noise: I enjoy the music 😀
I do not make rips for headphones!

  • Software: iZotope RX 5 Advanced, Adobe Audition CS 5.5, Twisted Wave 1.18
  • Very careful de-clicking with iZotope, significant clicks manually removed, never de-noising
  • DR-Analisys
  • Wave 32/192(32/384) —> Flac 24/96 & 24/192: Twisted Wave 1.18
  • Artwork: Sony Alpha 350, Epson Perfection V750 Pro, Photoshop CS 5.5

 

 

3 thoughts on “HD-Vinyl (Mono) 24/96 (DGG) Sviatoslav Richter Plays Schumann

Leave a Reply