HD-Vinyl Mono 24/96 (EMI/Angel) Claude Debussy – Images 1 & 2 – Pour Le Piano – Estampes – Walter Gieseking

front-small-boxset
Many thanks to our friend Trottar for this gem
Most looking at Gieseking’s Debussy recordings for EMI already know what it’s about; Gieseking’s interpretations have been seminal since their original release, if not without controversy. Whether you feel that nobody has done them better, or you have quibbles with his approach, these are indeed recordings that everyone moderately interested in Debussy or even classical music should at least hear.

Composer: Claude Debussy
Performer: Walter Gieseking
Vinyl (1954)
Number of Discs: 1
Format: Flac
Label: EMI/Angel
DR-Analysis: 13
Size: 464 MB
Scan: yes
Server: FileFactory

———————————————————————————————-
Analyzed folder: /96k (Mono) Debussy – Images, Pour Le Piano, Estampes – Gieseking
———————————————————————————————-
DR        Peak        RMS        Filename
———————————————————————————————-
DR14        -2.44 dB     -23.47 dB     A1 Images, 1 (1905) – Reflets Dans L’Eau.aif
DR16        -1.82 dB     -24.13 dB     A2 Images, 1 (1905) – Hommage A Rameau.aif
DR11        -1.16 dB     -18.47 dB     A3 Images, 1 (1905) – Mouvement.aif
DR13        -3.24 dB     -23.48 dB     A4 Images, 2 (1907) – Cloches A Travers Les Feuilles.aif
DR13        -10.38 dB     -29.83 dB     A5 Images, 2 (1907) – Et La Lune Descend Sur Le Temple Qui Fut.aif
DR12        -2.66 dB     -20.73 dB     A6 Images, 2 (1907) – Poissons D’Or.aif
DR11        -1.14 dB     -17.82 dB     B1 Pour Le Piano (1901) – Prelude.aif
DR14        -3.16 dB     -23.47 dB     B2 Pour Le Piano (1901) – Sarabande.aif
DR12        -1.39 dB     -18.77 dB     B3 Pour Le Piano (1901) – Toccata.aif
DR12        -5.23 dB     -23.58 dB     B4 Estampes (1903) – Pagodes.aif
DR12        -3.61 dB     -23.48 dB     B5 Estampes (1903) – Soiree Dans Grenade.aif
DR12        -4.25 dB     -21.58 dB     B6 Estampes (1903) – Jardins Sous La Pluie.aif
———————————————————————————————-
Number of files:    12
Official DR value:    DR13
==============================================================================================

Ripping Info

Monitoring

  • Software: iZotope RX 4 Advanced, Adobe Audition CS 5.5, Twisted Wave 1.9
  • Super light de-clicking with iZotope, significant clicks manually removing, no de-noising
  • DR-Analisys before converting to Flac
  • Converting Wave -> Flac: Twisted Wave 1.9
  • Artwork: Sony Alpha 350, Epson Perfection V750 Pro, Photoshop CS 5.5

DONATION !
If you like what i do, please consider that a little donation would be very appreciate.
I reinvest all donations in maintenance of my rig, for purchasing cleaning solutions and, most important of all, purchasing of new vinyls.
Click on the “Donate”-button.

Thank you very much !

Download from FileFactory
PW: LaWally

5 thoughts on “HD-Vinyl Mono 24/96 (EMI/Angel) Claude Debussy – Images 1 & 2 – Pour Le Piano – Estampes – Walter Gieseking

Leave a Reply