HD-Vinyls 24/192 (Hyperion) Modest Mussorgsky – Pictures At An Exhibition (Wills)

front-small-boxsetAs far as I know there if only one adaption for organ of the most beloved classical work in the world, Mussorgsky’s “Pictures”, that everyone  should own: that one by Jean Guillou. Unfortunately only available on CD.
I stumbled by accident on this vinyl, one fine day, when I was looking for something different on the web and bought it in 1 second. I hoped not to be disappointed. Indeed it is a different but also phantastic adaption by Arthur Wills at the organ of the Ely Cathedral.

Composer: Modest Mussorgsky
Performer:
Arthur Wills
Vinyl (1980)
Number of Discs: 1
Format: Flac
Label: Hyperion
DR-Analysis: DR 11
Size: 1.29 GB
Scan: yes
Server: FileFactory

 

Tracklist

A1 Promenade 1:25
A2 The Gnome 2:26
A3 Promenade 0:49
A4 Il Vecchio Castello 3:27
A5 Promenade 0:33
A6 Tuileries 0:56
A7 Bydlo 2:35
A8 Promenade 0:40
A9 Ballett Of The Chicks In Their Shells 1:23
A10 Samuel Goldenberg Et Schmuyle 2:24
B1 Promenade 1:30
B2 The Market Place Of Limoges 1:36
B3 Catacombae-Sepulchrum Romanum – Con Mortuis In Lingua Mortua 4:11
B4 The Hut Of Baba Yaga 3:17
B5 The Great Gate At Kiev 5:30

 

———————————————————————————————-
Analyzed folder: /192k Mussorgsky – Pictures At An Exhibition (Organ) – Wills
———————————————————————————————-
DR        Peak        RMS        Filename
———————————————————————————————-
DR11        -3.69 dB     -18.62 dB     A1 Promenade.aif
DR14        -7.78 dB     -27.11 dB     A10 Samuel Goldenberg Et Schmuyle.aif
DR12        -4.80 dB     -21.22 dB     A2 The Gnome.aif
DR11        -13.71 dB     -27.51 dB     A3 Promenade.aif
DR11        -20.39 dB     -33.39 dB     A4 Il Vecchio Castello.aif
DR10        -11.82 dB     -25.20 dB     A5 Promenade.aif
DR11        -18.77 dB     -31.61 dB     A6 Tuileries.aif
DR12        -3.43 dB     -18.71 dB     A7 Bydlo.aif
DR8        -9.67 dB     -24.81 dB     A8 Promenade.aif
DR10        -21.37 dB     -34.11 dB     A9 Ballett Of The Chicks In Their Shells.aif
DR12        -5.00 dB     -21.31 dB     B1 Promenade.aif
DR11        -19.33 dB     -32.80 dB     B2 The Market Place Of Limoges.aif
DR12        -5.23 dB     -23.39 dB     B3 Catacombae-Sepulchrum Romanum – Con Mortuis In Lingua Mortua.aif
DR13        -7.65 dB     -25.18 dB     B4 The Hut Of Baba Yaga.aif
DR12        -0.57 dB     -17.33 dB     B5 The Great Gate At Kiev.aif
———————————————————————————————-
Number of files:    15
Official DR value:    DR11
==============================================================================================

Ripping Info

Monitoring

If You hear some clicks and pops here and there, Who cares?
Id rather have a few light anomalies instead of destroying the music.
Enjoy the music, not the ticks & pops.
My rips are almost rough rips.

  • Software: iZotope RX 4 Advanced, Adobe Audition CS 5.5, Twisted Wave 1.9
  • Super light de-clicking with iZotope, significant clicks manually removing, no de-noising
  • DR-Analisys before converting to Flac
  • Converting Wave -> Flac: Twisted Wave 1.9
  • Artwork: Sony Alpha 350, Epson Perfection V750 Pro, Photoshop CS 5.5

DONATION !
If you like what i do, please consider that a little donation would be very appreciate.
I reinvest all donations in maintenance of my rig, for purchasing cleaning solutions and, most important of all, purchasing of new vinyls.
Click on the “Donate”-button.

Thank you very much !

Download from FileFactory
3 archives
PW: LaWally

9 thoughts on “HD-Vinyls 24/192 (Hyperion) Modest Mussorgsky – Pictures At An Exhibition (Wills)

Leave a Reply