HD-Vinyls 24/192 (EMI/Melodyia) Jean Sibelius – Symphonies No. 5 & 6 (Rozhdestvensky)


Many thanks to Jean-Luc for this pearl
Rozhdestvensky is one of the later Soviet conductors who was still young enough to have a lengthy post Soviet career. These Sibelius recordings are from the 1970s when he was in his 40s. One has to accept that the Soviet brass sections were always a bit blaring and intrusive. It adds excitement at climaxes but also can upset the musical balance. Bearing that in mind, Rozhdestvensky brings an exceptional lyrical impulse to these works combined with a consistent rhythmic impulse which keeps the music from becoming unfocused. In the Sixth symphony Rozhdestvensky does a particularly brilliant job with the first two movements. The opening with strings and woodwind is magically handled and the movement gently evolves out of that, building momentum without seeming to. The brass provide a blazing punctuation to the movement right before the final cadence. The second movement carries the listener to the edge of a Finnish forest where little noises and rustling trees disturb the solitude in evanescent fashion. The final two movements are excellent but not quite to the level of the earlier ones.

Composer: Jean Sibelius
Orchestra: Moscow Radio Symphony Orchestra
Conductor: Gennady Rozhdestvensky
Vinyl 1975/80

Number of Discs: 1
Format: FLAC
Label: EMI/Melodyia
DR-Analysis: DR 12
Size: 2.19 GB
Scan: yes
Server: FF

 

———————————————————————————————-
Analyzed Folder: /192k Sibelius – Symphonies No. 5, 6 – Rozhdestvensky
———————————————————————————————-
DR Peak RMS Filename
———————————————————————————————-

DR12 -1.02 dB -19.37 dB A1 Symphony No. 5 in E-Flat Major, Op. 82- I. Tempo molto moderato – Allegro moderato.flac
DR13 -2.02 dB -21.13 dB A2 Symphony No. 5 in E-Flat Major, Op. 82- II. Andante mosso, quasi allegretto.flac
DR12 -0.93 dB -17.75 dB A3 Symphony No. 5 in E-Flat Major, Op. 82- III. Allegro molto – Largamente assai.flac
DR12 -2.82 dB -20.25 dB B1 Symphony No.6 in D minor, Op.104 – 1. Allegro molto moderato.flac
DR13 -2.73 dB -21.70 dB B2 Symphony No.6 in D minor, Op.104 – 2. Allegretto moderato.flac
DR12 -1.31 dB -18.66 dB B3 Symphony No.6 in D minor, Op.104 – 3. Poco vivace.flac
DR13 -1.22 dB -18.85 dB B4 Symphony No.6 in D minor, Op.104 – 4. Allegro molto.flac
———————————————————————————————-

Number of Files: 7
Official DR Value: DR12

==============================================================================================

 

Ripping Info

Monitoring

  • Software: iZotope RX 5 Advanced, Adobe Audition CS 5.5, Twisted Wave 1.18
  • Very careful de-clicking with iZotope, significant clicks manually removed, never de-noising
  • DR-Analisys
  • Wave 32/192(32/384) —> Flac 24/96(24/192): Twisted Wave 1.18
  • Artwork: Sony Alpha 350, Epson Perfection V750 Pro, Photoshop CS 5.5

 

 

9 thoughts on “HD-Vinyls 24/192 (EMI/Melodyia) Jean Sibelius – Symphonies No. 5 & 6 (Rozhdestvensky)”

    1. Todos mis rips son un regalo para el mundo, para ti … si quieres los formatos que mencionaste, no hay problema, si estás dispuesto a pagar, porque me cuesta mucho tiempo extra y almacenamiento.
      (no DSD)

Leave a Reply