HD-Vinyls 24/192 (Philips) Wolfgang Amadeus Mozart – Symphonies No. 34 & 38 (Marriner)


Many thanks to our friend Dagote for the immortal Marriner
Trust Sir Neville Mariner and the Academy of St Martin in the Fields to handle Mozart–whether early, middling, or late–with brio. Then add the technical excellence of Philips to the value inherent already in the great composer and one of the twentieth century’s finest houses for Baroque and Classical music. The result is of unsurpassable value. This is another great listening experience performed by The Academy of St. Martin in the Fields, under Sir Neville Marriner. The interpretation is outstanding, though a little different than what we traditionally hear for Mozart.

Composer: Wolfgang Amadeus Mozart
Orchestra: Academy Of St. Martin-in-the-Fields
Conductor: Neville Marriner
Vinyl 1980
Number of Discs: 1
Format: FLAC
Label: Philips
DR-Analysis: DR 13
Size: 2.13 GB
Scan: yes
Server: FF

Tracklist

Symphonie Nr. 34 C-Dur KV 338
A1 1. Allegro Vivace 7:15
A2 2. Andante Di Molto 8:37
A3 3. Finale (Allegro Vivace) 5:31
A4 Menuett C-Dur KV 409 6:09
Symphonie Nr. 38 D-Dur KV 504 ‘Prager Symphonie’
B1 1. Adagio – Allegro 14:03
B2 2. Andante 8:58
B3 3. Finale (Presto) 5:51

 

———————————————————————————————-
Analyzed Folder: /192k WAM – Symohies 34, 38 – Marriner
———————————————————————————————-
DR Peak RMS Filename
———————————————————————————————-

DR12 -0.37 dB -17.12 dB A1 Symphonie Nr. 34 C-Dur KV 338 – 1. Allegro Vivace.flac
DR15 -8.84 dB -28.88 dB A2 Symphonie Nr. 34 C-Dur KV 338 – 2. Andante Di Molto.flac
DR13 -0.64 dB -18.12 dB A3 Symphonie Nr. 34 C-Dur KV 338 – 3. Finale (Allegro Vivace).flac
DR13 -0.54 dB -18.85 dB A4 Menuett C-Dur KV 409.flac
DR13 -0.56 dB -18.01 dB B1 Symphonie Nr. 38 D-Dur KV 504 ‘Prager Symphonie’ – 1. Adagio – Allegro.flac
DR14 -3.87 dB -23.55 dB B2 Symphonie Nr. 38 D-Dur KV 504 ‘Prager Symphonie’ – 2. Andante.flac
DR13 -0.71 dB -18.18 dB B3 Symphonie Nr. 38 D-Dur KV 504 ‘Prager Symphonie’ – 3. Finale (Presto).flac
———————————————————————————————-

Number of Files: 7
Official DR Value: DR13

==============================================================================================

 

 

Ripping Info

Monitoring

  • Software: iZotope RX 5 Advanced, Adobe Audition CS 5.5, Twisted Wave 1.18
  • Very careful de-clicking with iZotope, significant clicks manually removed, never de-noising
  • DR-Analisys
  • Wave 32/192(32/384) —> Flac 24/96(24/192): Twisted Wave 1.18
  • Artwork: Sony Alpha 350, Epson Perfection V750 Pro, Photoshop CS 5.5

 

 

14 thoughts on “HD-Vinyls 24/192 (Philips) Wolfgang Amadeus Mozart – Symphonies No. 34 & 38 (Marriner)”

Leave a Reply