HD-Vinyls 24/192 (Thorens) Berlioz/Davis – Bruckner/Haitink – Strauss/Sinopoli – Shostakovich/Kondrashin


Many thanks to our friend Urbanox for this rarity
This double album is a homage to the Staatskapelle. As intended and commissioned by the Thorens company. The Swiss turntables manufacturer cannot rival the Orchestra’s 460 years, but at 125 years of age, Thorens holds the record as the oldest company of the entertainment industry still in existence. These LPs are meant as a double birthday gift: to ourselves, but above all to our many friends around the world. For friends of the Staatskapelle, friends of Thorens and above all, for lovers of good-quality music reproduction. (Heinz Roher, CEO Thorens)

Composer: Hector Berlioz, Richard Strauss, Dmitri Shostakovich, Anton Bruckner
Orchestra: Staatskapelle Dresden
Conductor: Sir Colin Davis, Giuseppe Sinopoli, Bernard Haitink, Kyrill Kondrashin
Vinyl 1974/1994/2001/2003 (2008)
Number of Discs: 2
Format: FLAC
Label: Thorens
DR-Analysis: DR 14
Size: 3.29GB
Scan: yes
Server: FF

Tracklist

  Hector Berlioz – Grand Messe Des Morts Op. 5  
A1 Lacrymosa 10:31
  Anton Bruckner – Symphonie Nr. 6 A-Dur  
A2 3. Satz, Scherzo – Trio 8:28
  Richard Strauss – Tod Und Verklärung Op 24 – Tondichtung Für Orchester (26:31)
B:a Largo  
B:b Allegro Molto Agitato  
B:c Meno Mosso, Ma Semplre Alla Breve  
B:d Etwas Breiter  
B:e Molto Appassionato  
B:f Allegro Molto Agitato  
B:g Moderato  
B:h Sehr Breit  
B:i Poco A Poco Più Calando Sin Al Fine  
  Dmitri Shostakovich – Symphonie Nr. 15 A-Dur Op. 141  
C1 Allegretto 7:01
C2 Adagio 14:01
D1 Allegretto 4:20
D2 Adagio – Allegretto 15:26

 

———————————————————————————————-
Analyzed Folder: /192k Thorens Classical Sampler
———————————————————————————————-
DR Peak RMS Filename
———————————————————————————————-

DR12 -0.74 dB -18.90 dB A1 Berlioz, Requiem – Lacrymosa.flac
DR12 -1.58 dB -20.35 dB A2 Bruckner, Symphony No. 6 – 3rd Mov. Scherzo-Trio.flac
DR13 -0.38 dB -20.04 dB B Strauss, Death And Transfiguration Op. 24.flac
DR12 -1.06 dB -19.64 dB C1 Shostakovich, Symphony No. 15 in A Major, Op. 141 – I. Allegretto.flac
DR14 -0.66 dB -21.98 dB C2 Shostakovich, Symphony No. 15 in A Major, Op. 141 – II. Adagio.flac
DR16 -1.13 dB -25.80 dB D1 Shostakovich, Symphony No. 15 in A Major, Op. 141 – III. Allegretto.flac
DR14 -0.78 dB -22.33 dB D2 Shostakovich, Symphony No. 15 in A Major, Op. 141 – IV. Adagio.flac
———————————————————————————————-

Number of Files: 7
Official DR Value: DR14

==============================================================================================

 

Ripping Info

Monitoring

  • Software: iZotope RX 5 Advanced, Adobe Audition CS 5.5, Twisted Wave 1.18
  • Very careful de-clicking with iZotope, significant clicks manually removed, never de-noising
  • DR-Analisys
  • Wave 32/192(32/384) —> Flac 24/96(24/192): Twisted Wave 1.18
  • Artwork: Sony Alpha 350, Epson Perfection V750 Pro, Photoshop CS 5.5

 

 

6 thoughts on “HD-Vinyls 24/192 (Thorens) Berlioz/Davis – Bruckner/Haitink – Strauss/Sinopoli – Shostakovich/Kondrashin

Leave a Reply