HD-Vinyls 24/96 (CBS) Giacomo Puccini – La Rondine (Te Kanawa/Domingo/Maazel)

front_small_boxset
Thank you BOB my friend, the perfect fitting work for a last hug to the GRANDE MAESTRO Maazel on his last travel. R.I.P.

# Composer: Giacomo Puccini
# Performer: Kiri Te Kanawa, Placido Domingo, Leo Nucci
# Orchestra: London Symphony Orchestra
# Conductor: Lorin Maazel
# Vinyls (1983)
# Number of Discs: 2
# Format: FLAC (tracks)
# Label: CBS
# DR-Analysis: DR 16
# ASIN: B0000025QJ
# Size: 1.49 GB
# Scan: yes
# Server: FileFactory

 

 

My only comparison of this most underrated opera by Puccini is the release with Anna Moffo on RCA. I never thought to find a version that would be better in almost all relevant points. Now I found it. In terms of playoff matches I would say CBS wins 5:4 over RCA.

This recording of Puccini’s semi-popular opera is absolutely fantastic. Te Kanawa’s pianissimo high notes in “Chi’il bel sogno di Doretta” are brilliantly done, showing she was able to fully master the difficult, yet beautiful, challenges of the role. Domingo’s performance is, as usual, outstanding. Although the opera lacks any tenor arias, Domingo passionately and beautifully expresses his voice throughout the opera like no other (his opening to “Bevo al tuo fresco sorriso” is phenominal). Overall, this recording is a must-buy for the opera fan, especially for those who love Puccini’s intimate melodies.

———————————————————————————————-
Analyzed folder: /96kGP_LaRo_Maa/96k Puccini – La Rondine – Kiri Te Kanawa, Placido Domingo, Lorin Maazel
———————————————————————————————-
DR        Peak        RMS        Filename
———————————————————————————————-
DR17        -0.63 dB     -23.71 dB     sideA.wav
DR17        -0.26 dB     -23.35 dB     sideB.wav
DR14        -0.30 dB     -20.27 dB     sideC.wav
DR16        -0.21 dB     -22.29 dB     sideD.wav
———————————————————————————————-
Number of files:    4
Official DR value:    DR16
==============================================================================================

 

Credits

  • Baritone Vocals – Leo Nucci
  • Chorus – Ambrosian Opera Chorus, The
  • Conductor – Lorin Maazel
  • Soprano Vocals – Gillian Knight, Kiri Te Kanawa, Lillian Watson, Mariana Nicolesco
  • Tenor Vocals – David Rendall, Placido Domingo
  • Written-By – Giacomo Puccini

Ripping Infos

Monitoring

If You hear some clicks and pops here and there, Who cares?
Id rather have a few light anomalies instead of destroying the music. Enjoy the music, not the ticks & pops.
I tend more and more, in the last time, to de-click with an automatic setting between 1.0 and 1.2 so you can say, my rips are like half rough rips.

  • Software: iZotope RX Advanced v2.02, Adobe Audition CS 5.5, Twisted Wave 1.9
  • Very light de-clicking with iZotope, significant clicks manually removing, no de-noising
  • DR-Analisys before converting to Flac
  • Converting Wave -> Flac: Twisted Wave 1.9
  • Artwork: Sony Alpha 350, Epson Perfection V750 Pro, Photoshop CS 5.5

DONATION !
If you like what i do, please consider that a little donation would be very appreciate.
I reinvest all donations in maintenance of my rig, for purchasing cleaning solutions and, most important of all, purchasing of new vinyls.

Click on the “Donate”-button. Thank you very much !

Download from FileFactory
6 archives
PW: LaWally

10 thoughts on “HD-Vinyls 24/96 (CBS) Giacomo Puccini – La Rondine (Te Kanawa/Domingo/Maazel)”

  1. Caro Rachmaninov, ho notato che la notizia della morte di Carlo Bergonzi è stata accolta nella più totale indifferenza. Non un cenno in ricordo del grande artista scomparso, della sua fulgida carriera, della sua purissima arte.
    Non era il mio tenore preferito, tuttavia credo che ogni amante della lirica debba riconoscere che abbiamo conosciuto in lui un artista di straordinaria grandezza.
    Le foto dei funerali si trovano sul sito della ‘Gazzetta di Parma’, se a qualcuno dovessero interessare.

Leave a Reply