HD-Vinyls 24/96 (Decca) I. Albeniz – Iberia (De Larrocha)

This was the most expensive box I ever purchased on a flea market: 5 EUR, 2 LPs original english Decca, like new, super good sounding and…..is a De Larrocha. Reup, now with FF + RS links

# Composer: Isaac Albéniz
# Performer: Alicia De Larrocha
# Vinyl (1973)
# Number of Discs: 2
# Format: Flac (Tracks)
# DR-Analysis: DR 13
# Label: Decca

# ASIN: B0018NUM4W
# Size: 1.85 GB
# Scan: yes

# Server: FF, RS


A1 Iberia 01 Evocation.flac
A2 Iberia 02 El Puerto.flac
A3 Iberia 03 Fete-Dieu a Seville.flac
A4 Iberia 04 Rondena.flac

B1 Iberia 05 Almeria.flac
B2 Iberia 06 Triana.flac
B3 Iberia 07 Albaicin.flac
B4 Iberia 08 El Polo.flac

C1 Iberia 09 Lavapies.flac
C2 Iberia 10 Malaga.flac
C3 Iberia 11 Jerez.flac
C4 Iberia 12 Eritana.flac

D1 Navarra.flac
D2 Cantos de Espana 01 Prelude.flac
D3 Cantos de Espana 02 Orientale.flac
D4 Cantos de Espana 03 Sous le palmier.flac
D5 Cantos de Espana 04 Cordoba.flac
D6 Cantos de Espana 05 Seguilillas.flac


 Analyzed folder: /Users/alfredo/Desktop/ HiResMusic/96kAlb_Ib_DeLa/96k Albeniz – Iberia – De Larrocha
 DR        Peak        RMS        Filename
 DR17        -0.23 dB     -24.19 dB     A1 Iberia 01 Evocation.wav
 DR14        -0.43 dB     -18.83 dB     A2 Iberia 02 El Puerto.wav
 DR12        -0.00 dB     -17.27 dB     A3 Iberia 03 Fete-Dieu a Seville.wav
 DR13        -0.00 dB     -18.82 dB     A4 Iberia 04 Rondena.wav
 DR17        -0.34 dB     -22.69 dB     B1 Iberia 05 Almeria.wav
 DR14        -1.76 dB     -20.76 dB     B2 Iberia 06 Triana.wav
 DR15        -1.69 dB     -21.59 dB     B3 Iberia 07 Albaicin.wav
 DR16        -0.00 dB     -20.79 dB     B4 Iberia 08 El Polo.wav
 DR13        -1.06 dB     -18.05 dB     C1 Iberia 09 Lavapies.wav
 DR13        -1.07 dB     -19.01 dB     C2 Iberia 10 Malaga.wav
 DR16        -0.67 dB     -22.44 dB     C3 Iberia 11 Jerez.wav
 DR14        -0.22 dB     -18.64 dB     C4 Iberia 12 Eritana.wav
 DR13        -0.00 dB     -16.99 dB     D1 Navarra.wav
 DR14        -2.86 dB     -22.48 dB     D2 Cantos de Espana 01 Prelude.wav
 DR15        -5.07 dB     -25.04 dB     D3 Cantos de Espana 02 Orientale.wav
 DR15        -6.90 dB     -26.56 dB     D4 Cantos de Espana 03 Sous le palmier.wav
 DR15        -3.08 dB     -24.77 dB     D5 Cantos de Espana 04 Cordoba.wav
 DR12        -0.00 dB     -16.29 dB     D6 Cantos de Espana 05 Seguilillas.wav
 Number of files:    18
 Official DR value:    DR14
Vinyl condition: NM
Comes from: Property of AC/Rachmaninov


Ripping Infos

  • RCM: Okki Nokki
  • TT: Clearaudio Champion Level II
  • System: Special Edition Denon DL 103
  • Phono stage: Pro-Ject Phono Box II
  • Pre Amp: Unison Research Unico Pre (Tube)
  • Finals: Opera Consonance 9.9 Mono (Tube)
  • Speakers: Dali Helikon 400
  • Software: iZotope RX Advanced v2.02, Adobe Audition CS 5.5 -> Wave 32 bit/96 kHz
  • Light de-Clicking with ClickRepair, significant clicks manually removing, no De-Noising

You hear some clicks and pops here and there? Who cares?
I better let some light anomalies instead of destroying the music. Enjoy the music, not the ticks & pops.

  • DR-Analisys before converting to Flac
  • Converting Wave 32bit/96kHz -> Flac 24bit/96kHz: Twisted Wave
  • Artwork: Sony Alpha 350, Epson Perfection V750 Pro, Photoshop CS 5.5

If you like what i do, please consider that a little donation would be very appreciate. I reinvest all donations in maintenance of my rig, for purchasing cleaning solutions and, most important of all, purchasing of new vinyls.
Click on the “Donate”-button. Thank you very much !

Download from FileFactory
RapidShare links: PART 1PART 2PART 3PART 4PART 5PART 6
Total: 6 archives
PW: LaWally

15 thoughts on “HD-Vinyls 24/96 (Decca) I. Albeniz – Iberia (De Larrocha)

  1. Dear Sir,
    Thanks so much for this!! However, there seems to be a problem with the track “Triana”. i am sure I have downloaded the full file, but it keeps saying “corrupt file”. can you please help? thanks

    • Hi……..you’re the first one reporting this “error”. Please download from the other servers and tell me, if the error is on all three servers. I’m on vacation and can fix a error only after 7/17

      • Dear Sir,
        Yes, after I downloaded parts 8 and 9 from Fileserve, it worked out! i think parts 8 and 9 on Hotfile, there are some issues…

  2. Hello Rach !
    I cannot communicate with PM anymore ! So here is my reply.
    ADL in spanish repertoire is fascinating. She made several recordings, among them this one in the seventies which is great and a previous in the early sixties which is still perhaps greater. So the 2 recordings are necessary to own. Vol 2 & 3 will come as soon as I find them. So you can rip of course 1 & 4 from now on and keep them under wraps until the whole set is released. I’ll try to find too her early Granados recordings. 🙂
    Outside this I just re-bought Mozart/GranPartita/Fennell in NM for The previous LP very cheap was vg only (vg actually meaning very middling..) :))

Leave a Reply