HD-Vinyls 24/96 (Decca) R. Wagner – Solti’s “Ring” 3 – Siegfried

Reposted, now with FF links

# Composer: Richard Wagner
# Performer: Hans Hotter, Birgit Nilsson, Kirsten Flagstad, Dietrich Fischer-Dieskau, Wolfgang Windgassen, Ira Malaniuk, Claire Watson, Set Svanholm, Waldemar Kmentt, Eberhard Wächter, Paul Kuen, Hetty Plümacher, Oda Balsborg, Kurt Böhme, Gustav Neidlinger, Walter Kreppel, Jean Madeira, George London, Gerhard Stolze, Dame Joan Sutherland, Marga Höffgen, Helen Watts, Maureen Guy, Dame Gwyneth Jones, Lucia Popp, Christa Ludwig, Gottlob Frick, Anita Välkki, Grace Hoffman, Vera Schlosser, Vera Little, Claudia Hellmann, Brigitte Fassbaender, Régine Crespin, Helga Dernesch, James King, Berit Lindholm, Marilyn Tyler
# Orchestra: Vienna Philarmonic Orchestra
# Conductor: Sir Georg Solti
# Vinyl (1963)
# Number of Discs: 5
# Format: Flac
# Label: Decca
# DR-Analysis: DR 15
# ASIN: B0000042H4
# Size: 4.56 GB
# Scan: yes
# Server: FF

 Analyzed folder: /Users/alfredo/Desktop/ HiResMusic/96k Wagner Ring/96k Wagner Ring Solti/3 Siegfried Solti
 DR        Peak        RMS        Filename
 DR15        -0.98 dB     -21.72 dB     Siegfried Solti – SideA.wav
 DR15        -0.26 dB     -20.54 dB     Siegfried Solti – SideB.wav
 DR14        -0.70 dB     -19.50 dB     Siegfried Solti – SideC.wav
 DR15        -2.07 dB     -22.80 dB     Siegfried Solti – SideD.wav
 DR15        -0.99 dB     -21.80 dB     Siegfried Solti – SideE.wav
 DR15        -0.35 dB     -21.20 dB     Siegfried Solti – SideF.wav
 DR14        -0.76 dB     -20.11 dB     Siegfried Solti – SideG.wav
 DR15        -0.40 dB     -20.90 dB     Siegfried Solti – SideH.wav
 DR14        -0.80 dB     -21.10 dB     Siegfried Solti – SideI.wav
 DR13        -0.38 dB     -18.17 dB     Siegfried Solti – SideJ.wav
 Number of files:    10
 Official DR value:    DR15

Ripping Infos

  • RCM: Okki Nokki
  • TT: Clearaudio Champion Level II
  • System: Special Edition Denon DL 103
  • Phono stage: Pro-Ject Phono Box II
  • Pre Amp: Unison Research Unico Pre (Tube)
  • Finals: Opera Consonance 9.9 Mono (Tube)
  • Speakers: Dali Helikon 400
  • Connections: MIT Terminator, Audioquest Emerald, Audioquest Quartz
  • Software: iZotope RX Advanced v2.02, Adobe Audition CS 5.5, Twisted Wave 1.9
  • Light de-Clicking with ClickRepair, significant clicks manually removing, no De-Noising

If You hear some clicks and pops here and there,  Who cares?
Id rather have a few light anomalies instead of destroying the music. Enjoy the music, not the ticks & pops.

  • DR-Analisys before converting to Flac
  • Converting Wave -> Flac: Twisted Wave 1.9
  • Artwork: Sony Alpha 350, Epson Perfection V750 Pro, Photoshop CS 5.5

If you like what i do, please consider that a little donation would be very appreciate. I reinvest all donations in maintenance of my rig, for purchasing cleaning solutions and, most important of all, purchasing of new vinyls.
Click on the “Donate”-button. Thank you very much !

Download fro
m FileFactory
12 archives

PW: LaWally

12 thoughts on “HD-Vinyls 24/96 (Decca) R. Wagner – Solti’s “Ring” 3 – Siegfried

    • Hi Bob…don’t know, what you mean. Checked files: they are OK, so file “side1.flac” – no 12 minutes missed.
      Downloaded from HF and FSo – both “side1.flac” are OK.

      Are you sure, you mean my vinyl rips and not the CD version?

  1. Hi again,

    My mistake about act one. I confusedly added up the times of the first two acts instead of the first three tracks, so the first act appears complete. Still, the ten total tracks which I have extracted add up to just more than 227 minutes total, and my present cd set of the Solti Ring is over 237 minutes, according to the liner notes, so something is amiss, though I do not yet know what.


  2. Hi,

    I said the first two acts, when I meant the first two tracks. But in rereading your reply to my initial e-mail, you seem to be suggesting that the cd version does have a different amount of music on it than your vinyl version does. This would explain the discrepancy, though it is odd that the vinyl version should be shorter.


  3. Ciao Rach, sono d’accordo: questo registrazione in vinile mi piace di più delle recenti edizioni in CD.
    C’è un problema con file 6: sono più di 24 che provo ma mi dice che il sistema è ‘down for maintenance’. Gli altri files sono in ordine però. Potresti controllare, per favore?
    Grazie infinite.

Leave a Reply