HD-Vinyls 24/96 (DGG) Wolfgang Amadeus Mozart – Violin Concerti No. 3 & 5 (Mutter/Karajan)


15 years old “Wonder Child” Anne Sophie Mutter and the “Old Man” – just to paraphrase a famous novel by Hemingway – was the best story that life could be able to write at its time. It is a blessed relief to turn to this famous recording. Even after all these decades, it continues to astound. The young soloist plays fierily and poetically in turns. My celebrated Herbie soup-o-meter did not beep once for its duration. The Berlin Philharmonic, judiciously scaled down, is galvanised by the endeavour. Oh, listen to the deified double basses of this once-great ensemble as they ruminate expansively at 7’11” ff in the Adagio of K 219 – this is opulence. Indeed, both works momentarily appear to be greater than what they are. The warm analogue recording is simply beautiful.
Longevity has been accrued by this endeavour. I cannot say the same for a certain mangy old wolf in this domain whose ululations will soon be lost to the winds.

Composer: Wolfgang Amadeus Mozart
Performer:
 Anne-Sophie Mutter
Orchestra: Berliner Philharmoniker
Conductor:
Herbert von Karajan
Vinyl 1978

Number of Discs: 1
Format: FLAC
Label: DGG
DR-Analysis: DR 14
Size: 1.2 GB
Scan: yes
Server: FF

 

Tracklist

  Konzert Für Violine Und Orchester Nr. 3 G-dur KV 216  
A1 1. Allegro 10:42
A2 2. Adagio 9:47
A3 3. Rondeau. Allegro 6:38
  Konzert Für Violine Und Orchester Nr. 5 A-dur KV 219  
B1 1. Allegro Aperto 10:41
B2 2. Adagio 10:45
B3 3. Rondeau. Tempo Di Menuetto 9:20

 

———————————————————————————————-
Analyzed Folder: /192k WAM – Violin Concerti No. 3, 5 – Mutter, Karajan_dr.txt
———————————————————————————————-
DR Peak RMS Filename
———————————————————————————————-

DR14 -0.23 dB -19.31 dB A1 Konzert Fuer Violine Und Orchester Nr. 3 G-dur KV 216 – 1. Allegro.flac
DR13 -3.84 dB -22.44 dB A2 Konzert Fuer Violine Und Orchester Nr. 3 G-dur KV 216 – 2. Adagio.flac
DR14 -0.48 dB -19.91 dB A3 Konzert Fuer Violine Und Orchester Nr. 3 G-dur KV 216 – 3. Rondeau. Allegro.flac
DR15 -0.16 dB -19.40 dB B1 Konzert Fuer Violine Und Orchester Nr. 5 A-dur KV 219 – 1. Allegro Aperto.flac
DR14 -3.59 dB -22.21 dB B2 Konzert Fuer Violine Und Orchester Nr. 5 A-dur KV 219 – 2. Adagio.flac
DR14 -0.49 dB -19.20 dB B3 Konzert Fuer Violine Und Orchester Nr. 5 A-dur KV 219 – 3. Rondeau. Tempo Di Menuetto.flac
———————————————————————————————-

Number of Files: 6
Official DR Value: DR14

==============================================================================================

 

Credits

  • Cadenza [Cadenzas / New Version © 1929, Simrock, Berlin] – Ossip Schnirlin (tracks: B1 to B3)
  • Cadenza [Cadenzas] – Joseph Joachim
  • Composed By – Wolfgang Amadeus Mozart
  • Conductor – Herbert von Karajan
  • Edited By – Volker Martin
  • Engineer – Günter Hermanns
  • Liner Notes – Ursula Klein
  • Liner Notes [Traduction] – Daniel Henry
  • Liner Notes [Traduzione] – M. G. Kölling-Bambini
  • Liner Notes [Translation] – John Coombs
  • Orchestra – Berliner Philharmoniker
  • Photography By [Cover Photo] – Siegfried Lauterwasser
  • Producer – Dr. Hans Hirsch, Magdalene Padberg
  • Recording Supervisor – Cord Garben
  • Violin – Anne-Sophie Mutter

 

Ripping Info

Monitoring

  • Software: iZotope RX 5 Advanced, Adobe Audition CS 5.5, Twisted Wave 1.18
  • Very careful de-clicking with iZotope, significant clicks manually removed, never de-noising
  • DR-Analisys
  • Wave 32/192(32/384) —> Flac 24/96(24/192): Twisted Wave 1.18
  • Artwork: Sony Alpha 350, Epson Perfection V750 Pro, Photoshop CS 5.5

 

 

20 thoughts on “HD-Vinyls 24/96 (DGG) Wolfgang Amadeus Mozart – Violin Concerti No. 3 & 5 (Mutter/Karajan)”

    1. I don’t know, what to do. The archives were DLed in 20 hours more than 100 times… also 3 other rips I made 2 days ago for another blog, are DLed more than 100/70/40 times..Please, update your software to the newest version and research what’s the best method to unpack 7z archives generated by Keka for Mac.

    1. I don’t know, what to do. The archives were DLed in 20 hours more than 100 times… also 3 other rips I made 2 days ago for another blog, are DLed more than 100/70/40 times..Please, update your software to the newest version and research what’s the best method to unpack 7z archives generated by Keka for Mac.

  1. Can’t unpack as well. I have about 5 different tools, but neither one can read the format. What happened? Someone can help? It seems we’re a lot with the same issue. Thank’s anyway, Rach!

    1. I don’t know, what to do. The archives were DLed in 20 hours more than 100 times… also 3 other rips I made 2 days ago for another blog, are DLed more than 100/70/40 times..Please, update your software to the newest version and research what’s the best method to unpack 7z archives generated by Keka for Mac.

    2. The 3 files with extention 001, 002, 003 are parts of one big 7Z archive file. Can’t tell you for mac, but on PC, I concatenate them : copy /b file.001+file.002+file.003 file.7Z, and then I decompress the 7Z file.

    1. There is a misunderstanding: this is the original recording and original pressing, not a remastered one… The mention in the text leads one to a wrong conclusion.
      When I took the text from an amazon reviewer I didn’t see that passage. I cut it now away.

      So your words are more precious now, regarding the sound…this proves that one doesn’t need a remaster to get fantastic sound 😀

Leave a Reply