HD-Vinyls 24/96 (EMI) Francis Poulenc – La Musique De Chambre (Fournier, Le Quintette À Vent De Paris, Menuhin)


Many thanks to Jean-Luc for this marvellous set
Francis Poulenc had throughout his life a predilection for wind instruments. He composed for the winds at the very beginning (sonata for 2 clarinets) at the very end of his career (sonatas for clarinet and piano, for oboe and piano). But this did not prevent him from producing during the Second World War two magnificent sonatas for violin and piano and cello and piano (each dedicated to Ginette Neveu and Pierre Fournier). His music

Composer: Francis Poulenc
Performer: Pierre Fournier, Le Quintette À Vent De Paris, Yehudi Menuhin
Vinyl 1973

Number of Discs: 4
Format: FLAC
Label: EMI
DR-Analysis: DR 13
Size: 3.5 GB
Scan: yes
Server: FF

His music, recognizable among a thousand, is of a rusticity, a spontaneity and a grandiloquent freshness. The works of youth (sonatas for 2 clarinets, for clarinet and bassoon and for trumpet, horn and trombone) are of a squeaky irony. The first real pieces of chamber music (trio for oboe, bassoon, piano, sextet for winds and piano) already have the mark “Grand Poulenc”. Poulenc’s last two compositions, the sonatas for clarinet and piano, and for oboe and piano are genuine farewells and sorrows to his dear friends Honegger and Prokofiev.

The interpretation is first-rate. French soloists do wonder in this repertoire that suits them so much. At the head is a young Michel Portal, who is boosted in clarinet pieces. Then a Yehudi Menuhin to fire technique. Then a Pierre Fournier with a nobility who belonged only to him. The members of the wind quintet of Paris as well as the three English brass do not demerit in front of their colleagues. What connivance, what joy to play together! The pianist Jacques Février, well versed in this repertoire throughout his career, is more than just a soloist.

Too bad today that we no longer play music – in general – with this spirit. Poor casualness …

Tracklist

  Sonate Pour Violon Et Piano (1943, Édition Corrigée En 1949)  
A1 I. Allegro Con Fuoco 6:41
A2 II. Intermezzo (Très Lent Et Calme) 6:06
A3 III. Presto Tragico 5:48
  Sonate Pour Deux Clarinettes (1918, Révisée En 1945)  
A4 I. Presto 1:52
A5 II. Andante 2:47
A6 III. Vif 1:46
  Sonate Pour Violoncelle Et Piano (1948, Édition Corrigée En 1953)  
B1 I. Allegro (Tempo Di Marcia) 5:41
B2 II. Cavatine 7:15
B3 III. Ballabile 3:35
B4 IV. Finale 6:17
  Sonate Pour Flûte Et Piano (1958)  
C1 I. Allegro Malinconico 4:46
C2 II. Cantilena 4:13
C3 III. Presto Giocoso 3:28
  Élégie Pour Cor Et Piano (1957)  
C4 Très Calme – Agitato Molto. Très Calme 9:38
  Sonate Pour Clarinette Et Piano (1962)  
D1 I. Allegro Tristemente 5:32
D2 II. Romanza 4:13
D3 III. Allegro Con Fuoco 2:59
  Sonate Pour Hautbois Et Piano (1962)  
D4 I. Élégie (Paisiblement) 5:06
D5 II. Scherzo (Très Animé) 3:52
D6 III. Déploration (Très Calme) 4:16
  Sextuor Pour Piano, Flûte, Hautbois, Clarinette, Basson Et Cor (1932, Révisé En 1939-40)  
E1 I. Allegro Vivace 8:01
E2 II. Divertissement (Andantino) 4:29
E3 III. Finale (Prestissimo) 6:07
  Sonate Pour Clarinette Et Basson (1922, Révisée En 1945)  
E4 I. Allegro 1:44
E5 II. Romance (Andante Très Doux) 2:43
E6 III. Final (Très Animé) 2:44
  Trio Pour Piano, Hautbois Et Basson (1926)  
F1 I. Presto 5:48
F2 II. Andante 4:09
F3 III. Rondo 3:05
  Sonate Pour Cor, Trombone Et Trompette (1922)  
F4 I. Allegro Moderato 3:53
F5 II. Andante 2:53
F6 III. Rondeau (Animé) 1:35
  Sonate Pour Deux Pianos (1953)  
G1 I. Prologue (Extrêmement Lent Et Calme) 6:37
G2 II. Allegro Molto (Très Ryhmé) 4:59
G3 III. Andante Lirico (Lentement) 5:46
G4 IV. Épilogue 4:48
H1 L’Embarquement Pour Cythère (1951) 2:02
H2 Élégie Pour Deux Pianos (1959) 6:28
H3 Capriccio Pour Deux Pianos (1952) 4:41
  Sonata Pour Piano À Quatre Mains (1918, Révisée En 1939)  
H4 I. Prélude (Modéré) 2:07
H5 II. Rustique – Naïf Et Lent 1:53
H6 III. Final (Très Vite) 1:47

 

———————————————————————————————-
Analyzed Folder: /96k Poulenc – La Musique De Chambre – Fournier, Menuhin
———————————————————————————————-
DR Peak RMS Filename
———————————————————————————————-

DR14 -0.75 dB -19.60 dB A1 Sonate Pour Violon Et Piano (1943, Edition Corrigee En 1949) – I. Allegro Con Fuoco.flac
DR14 -5.52 dB -25.45 dB A2 Sonate Pour Violon Et Piano (1943, Edition Corrigee En 1949) – II. Intermezzo (Tres Lent Et Calme).flac
DR14 -1.08 dB -20.10 dB A3 Sonate Pour Violon Et Piano (1943, Edition Corrigee En 1949) – III. Presto Tragico.flac
DR13 -1.59 dB -20.37 dB A4 Sonate Pour Deux Clarinettes (1918, Revisee En 1945) – I. Presto.flac
DR10 -14.84 dB -30.03 dB A5 Sonate Pour Deux Clarinettes (1918, Revisee En 1945) – II. Andante.flac
DR15 -1.97 dB -20.54 dB A6 Sonate Pour Deux Clarinettes (1918, Revisee En 1945) – III. Vif.flac
DR14 -0.87 dB -20.52 dB B1 Sonate Pour Violoncelle Et Piano (1948, Edition Corrigee En 1953) – I. Allegro (Tempo Di Marcia).flac
DR14 -1.84 dB -23.01 dB B2 Sonate Pour Violoncelle Et Piano (1948, Edition Corrigee En 1953) – II. Cavatine.flac
DR15 -1.04 dB -20.36 dB B3 Sonate Pour Violoncelle Et Piano (1948, Edition Corrigee En 1953) – III. Ballabile.flac
DR15 -0.74 dB -19.65 dB B4 Sonate Pour Violoncelle Et Piano (1948, Edition Corrigee En 1953) – IV. Finale.flac
DR12 -4.14 dB -19.47 dB C1 Sonate Pour Flute Et Piano (1958) – I. Allegro Malinconico.flac
DR12 -3.29 dB -20.63 dB C2 Sonate Pour Flute Et Piano (1958) – II. Cantilena.flac
DR11 -0.76 dB -16.39 dB C3 Sonate Pour Flute Et Piano (1958) – III. Presto Giocoso.flac
DR13 -0.31 dB -19.05 dB C4 Elegie Pour Cor Et Piano (1957) – Tres Calme – Agitato Molto. Tres Calme.flac
DR13 -2.53 dB -21.21 dB D1 Sonate Pour Clarinette Et Piano (1962) – I. Allegro Tristemente.flac
DR13 -4.71 dB -24.14 dB D2 Sonate Pour Clarinette Et Piano (1962) – II. Romanza.flac
DR12 -0.98 dB -16.45 dB D3 Sonate Pour Clarinette Et Piano (1962) – III. Allegro Con Fuoco.flac
DR15 -1.60 dB -22.90 dB D4 Sonate Pour Hautbois Et Piano (1962) – I. Elegie (Paisiblement).flac
DR14 -2.51 dB -22.29 dB D5 Sonate Pour Hautbois Et Piano (1962) – II. Scherzo (Tres Anime).flac
DR15 -2.69 dB -24.59 dB D6 Sonate Pour Hautbois Et Piano (1962) – III. Deploration (Tres Calme).flac
DR12 -1.22 dB -18.47 dB E1 Sextuor Pour Piano, Flute, Hautbois, Clarinette, Basson Et Cor (1932, Revise En 1939-40) – I. Allegro Vivace.flac
DR14 -1.94 dB -20.91 dB E2 Sextuor Pour Piano, Flute, Hautbois, Clarinette, Basson Et Cor (1932, Revise En 1939-40) – II. Divertissement (Andantino).flac
DR11 -0.60 dB -16.95 dB E3 Sextuor Pour Piano, Flute, Hautbois, Clarinette, Basson Et Cor (1932, Revise En 1939-40) – III. Finale (Prestissimo).flac
DR13 -6.57 dB -22.74 dB E4 Sonate Pour Clarinette Et Basson (1922, Revisee En 1945) – I. Allegro.flac
DR10 -9.14 dB -24.84 dB E5 Sonate Pour Clarinette Et Basson (1922, Revisee En 1945) – II. Romance (Andante Tres Doux).flac
DR15 -2.94 dB -23.35 dB E6 Sonate Pour Clarinette Et Basson (1922, Revisee En 1945) – III. Final (Tres Anime).flac
DR13 -1.77 dB -20.01 dB F1 Trio Pour Piano, Hautbois Et Basson (1926) – I. Presto.flac
DR13 -3.08 dB -21.96 dB F2 Trio Pour Piano, Hautbois Et Basson (1926) – II. Andante.flac
DR12 -1.84 dB -17.38 dB F3 Trio Pour Piano, Hautbois Et Basson (1926) – III. Rondo.flac
DR14 -1.28 dB -20.03 dB F4 Sonate Pour Cor, Trombone Et Trompette (1922) – I. Allegro Moderato.flac
DR11 -8.63 dB -23.52 dB F5 Sonate Pour Cor, Trombone Et Trompette (1922) – II. Andante.flac
DR13 -0.75 dB -17.73 dB F6 Sonate Pour Cor, Trombone Et Trompette (1922) – III. Rondeau (Anime).flac
DR13 -0.28 dB -19.21 dB G1 Sonate Pour Deux Pianos (1953) – I. Prologue (Extremement Lent Et Calme).flac
DR12 -1.30 dB -17.78 dB G2 Sonate Pour Deux Pianos (1953) – II. Allegro Molto (Tres Ryhme).flac
DR15 -1.47 dB -22.69 dB G3 Sonate Pour Deux Pianos (1953) – III. Andante Lirico (Lentement).flac
DR13 -1.15 dB -18.83 dB G4 Sonate Pour Deux Pianos (1953) – IV. Epilogue.flac
DR13 -3.00 dB -21.61 dB H1 L’Embarquement Pour Cythere (1951).flac
DR15 -3.00 dB -25.33 dB H2 Elegie Pour Deux Pianos (1959).flac
DR14 -1.08 dB -20.10 dB H3 Capriccio Pour Deux Pianos (1952).flac
DR13 -0.53 dB -18.97 dB H4 Sonata Pour Piano A Quatre Mains (1918, Revisee En 1939) – I. Prelude (Modere).flac
DR13 -5.03 dB -26.08 dB H5 Sonata Pour Piano A Quatre Mains (1918, Revisee En 1939) – II. Rustique – Naif Et Lent.flac
DR12 -2.63 dB -19.40 dB H6 Sonata Pour Piano A Quatre Mains (1918, Revisee En 1939) – III. Final (Tres Vite).flac
———————————————————————————————-

Number of Files: 42
Official DR Value: DR13

==============================================================================================

Credits

  • Artwork [Couverture Du Coffret Illustrée Par] – Jean-Denis Malclès
  • Bassoon – Amaury Wallez (tracks: E4 to E6), Gérard Faisandier (tracks: E1 to E3, F1 to F3)
  • Cello – Pierre Fournier (tracks: B1 to B3)
  • Clarinet – André Boutard (tracks: E1 to E3), Maurice Gabai (tracks: A4 to A6), Michel Portal (tracks: A4 to A6, D1 to D3, E4 to E6)
  • Composed By – Francis Poulenc
  • Ensemble – Le Quintette À Vent De Paris (tracks: E1 to E3)
  • Flute – Jacques Castagner (tracks: E1 to E3), Michel Debost (tracks: C1 to C3)
  • Horn [Cor] – Alan Civil (tracks: C4, F4 to F6), Michel Bergès (tracks: E1 to E3)
  • Layout [Maquette] – Bruno Crespel
  • Liner Notes – Henri Hell
  • Oboe [Hautbois] – Maurice Bourgue (tracks: D4 to D6), Robert Casier (tracks: E1 to E3)
  • Photography By [Cover Booklet] – Photo X
  • Piano – Gabriel Tacchino (tracks: G to H), Jacques Février (tracks: B1 to B3, C1 to C4, D1 to D6, F1 to F3, G to H)
  • Recording Supervisor [Enregistré Sous Le Contrôle Artistique De] – Jacques Février
  • Trombone – John Iveson (tracks: F4 to F6)
  • Trumpet – John Wilbraham (tracks: F4 to F6)
  • Violin – Yehudi Menuhin (tracks: A1 to A3 )

Ripping Info

Monitoring

  • Software: iZotope RX 5 Advanced, Adobe Audition CS 5.5, Twisted Wave 1.18
  • Very careful de-clicking with iZotope, significant clicks manually removed, never de-noising
  • DR-Analisys
  • Wave 32/192(32/384) —> Flac 24/96(24/192): Twisted Wave 1.18
  • Artwork: Sony Alpha 350, Epson Perfection V750 Pro, Photoshop CS 5.5

 

 

9 thoughts on “HD-Vinyls 24/96 (EMI) Francis Poulenc – La Musique De Chambre (Fournier, Le Quintette À Vent De Paris, Menuhin)”

Leave a Reply