HD-Vinyls 24/96 (EMI) Giuseppe Verdi – Requiem (Giulini)

front_small_boxsetEven though the corruption of the Heirarchy, mainly about power, put him off the Church, and made it difficult for him to believe, Verdi expresses here his faith, or longing for faith. The Giulini recording of Verdi’s “Requiem” has long been a favorite of many listeners, both for the conducting and the quality of the soloists, most of whom were at the peak of their careers.

# Composer: Giuseppe Verdi
# Performer: Nicolai Gedda, Nicolai Ghiaurov, Elisabeth Schwarzkopf,  Christa Ludwig
# Orchestra: Philarmonia Orchestra
# Conductor: Carlo Maria Giulini
# Vinyl (1964)
# Number of Discs: 2
# Format: Flac
# DR-Analysis: DR 11
# Label: EMI Angel
# ASIN: B00AM5RD44
# Size: 1.84 GB
# Scan: yes
# Server:



Verdi’s Requiem, like many of his later works, is extremely demanding when comes to bringing it to life in full strength. You need powerful orchestral and choral forces, extremely potent and expressive voices and of course a really insightfull conductor capable of holding all together and making the drama and meanings come to life.
Fortunately it looks that everyone who tried approaching this masterpiece tried its best. But among them are the real achievers. And I will mention only the three of them I think really need to be mentioned in this context: first, at least historically, is Da Sabata. I am one of not so many lucky listeners who has his edition feturing Maria Caniglia. And that is an achievement approaching perfection. The next one is Toscanini with his incisiveness which works its powerrs all the way through his 1951 live recording. And then is the recording at hand here.
This is one of the recordings documenting the glorious (so unfortunately dawned) era of music making at its highest. It shouldn’t come as a surprise that behind it one finds Carlo Maria Giulini. This is just one of his greatest achievements that are landmarking the history of music. The attention to detail, so insightfull choice of tempo, the ability of conducting music so flowlessly to its highs and deep downs, the ability of using musical powers under his command to their very best and not least the profound understanding of the musical score are shown here in their full power. It grabs you from the beginning and you will find yourself under its powers everafter.
The choir might be the best you find on disc. It is highly responsive and produces some of the greatest moments of this piece. Along comes the Philarhmonia Orchestra in beatiful sound and very attentive and responsive to its mastreful conductor.
The soloists are as much as you could wish for. Envolved, musically perfect, rendering the amount of human drama that this piece comprises, the true voices of humanity you might say. I am especially delighted with Christa Ludwig which seems a different singer from her recording under Karajan (recording available from Deutsche Grammophone) and Ghiaurov who displays such a sensibility along with his powerful voice. Damme Schwartzkopf and Gedda are also very good although I couldn’t stop myself dreaming at Franco Corelli, giving the amazing musical power unleashed here (you can hear him in the recording of the verdian requiem under Mehta).
As one of the other reviewers mentioned if you want only one recording of Verdi’s Requiem you have to have this one. You will hear inner voices inside the orchestra, choir and soloists you will not hear anywhere else. The only real threat to this recording is Da Sabata’s which is set back just by a poorer sound which makes it harder to come out with the greatest effect.



Analyzed folder: /96kGV_Re_Giu/96k Verdi – Requiem – Giulini
DR Peak RMS Filename
DR11 -1.53 dB -19.45 dB A1 Verdi – Requiem – 1 Requiem E Kyrie- Requiem Aeternam.wav
DR9 -1.19 dB -15.57 dB A2 Verdi – Requiem – 1 Requiem E Kyrie- Kyrie Eleison.wav
DR8 -0.95 dB -13.08 dB A3 Verdi – Requiem – 2 Sequenza- Dies Irae.wav
DR10 -1.50 dB -17.18 dB A4 Verdi – Requiem – 2 Sequenza- Tuba Mirum.wav
DR11 -1.89 dB -20.26 dB A5 Verdi – Requiem – 2 Sequenza- Liber Scriptus – Dies Irae.wav
DR12 -6.34 dB -24.11 dB A6 Verdi – Requiem – 2 Sequenza- Quid Sum Miser.wav
DR9 -2.34 dB -16.06 dB B1 Verdi – Requiem – 2 Sequenza- Rex Tremendae.wav
DR12 -4.57 dB -21.66 dB B2 Verdi – Requiem – 2 Sequenza- Recordare.wav
DR11 -4.67 dB -21.53 dB B3 Verdi – Requiem – 2 Sequenza- Ingemisco.wav
DR10 -1.40 dB -16.69 dB B4 Verdi – Requiem – 2 Sequenza- Confutatis Maledictis – Dies Irae.wav
DR11 -3.00 dB -20.39 dB B5 Verdi – Requiem – 2 Sequenza- Lacrymosa.wav
DR12 -0.58 dB -18.29 dB C1 Verdi – Requiem – 3 Offertorio- Domine Jesu Christe.wav
DR13 -0.70 dB -19.72 dB C2 Verdi – Requiem – 3 Offertorio- Hostias Et Preces.wav
DR9 -2.06 dB -15.98 dB C3 Verdi – Requiem – 4 Sanctus.wav
DR13 -3.10 dB -21.89 dB C4 Verdi – Requiem – 5 Agnus Dei.wav
DR12 -3.31 dB -21.75 dB D1 Verdi – Requiem – 6 Lux Aeterna.wav
DR10 -1.76 dB -16.86 dB D2 Verdi – Requiem – 7 Libera Me- Libera Me – Dies Irae.wav
DR12 -10.39 dB -27.23 dB D3 Verdi – Requiem – 7 Libera Me- Requiem Aeternam.wav
DR9 -1.94 dB -16.26 dB D4 Verdi – Requiem – 7 Libera Me- Libera Me.wav
Number of files: 19
Official DR value: DR11



  • Bass Vocals – Nicolai Ghiaurov
  • Chorus Master – Wilhelm Pitz
  • Orchestra – Philarmonia Orchestra
  • Conductor – Carlo Maria Giulini
  • Mezzo-soprano Vocals – Christa Ludwig
  • Soprano Vocals – Elisabeth Schwarzkopf
  • Tenor Vocals – Nicolai Gedda



Ripping Infos

  • RCM: Okki Nokki (L’art du son, Clearaudio’s Diamond Cleaner)
  • TT: Clearaudio Champion Level II
  • Cartridge: Sumiko Black Bird
  • Phono amp: Pro-Ject Phono Box RS
  • ADC/DAC: RME Fireface UC
  • Pre Amp: Unison Research Unico Pre (Tube)
  • Finals: Opera Consonance 9.9 Mono (Tube)
  • Speakers: Dali Helikon 400
  • Connections: MIT Terminator, Audioquest Emerald, Audioquest Quartz
  • Software: iZotope RX Advanced v2.02, Adobe Audition CS 5.5, Twisted Wave 1.9
  • Light de-Clicking with iZotope, significant clicks manually removing, no De-Noising

If You hear some clicks and pops here and there, Who cares?
Id rather have a few light anomalies instead of destroying the music.
Enjoy the music, not the ticks & pops.

  • DR-Analisys before converting to Flac
  • Converting Wave -> Flac: Twisted Wave 1.9
  • Artwork: Sony Alpha 350, Epson Perfection V750 Pro, Photoshop CS 5.5

DONATION ! If you like what i do, please consider that a little donation would be very appreciate. I reinvest all donations in maintenance of my rig, for purchasing cleaning solutions and, most important of all, purchasing of new vinyls. Click on the “Donate”-button. Thank you very much !

Download from FileFactory
5 archives

PW: LaWally

25 thoughts on “HD-Vinyls 24/96 (EMI) Giuseppe Verdi – Requiem (Giulini)

  1. Many thanks. Beyond the vinyl, you are working so hard in the last month uploading many LPs, this is a hard work…so…many many thanks for spread the culture with that energy and interest since at least 3-4 years at boxset blog. Behind of your effort there are noble actions like re-up load many vinyls after hotfile events. At the same time what you does is something exclusive, there are not too much sites for download well ripped music, well introduced and well spreaded.Thanks for all.

  2. Dear Rach, there is a quite higher level of the background noise in the track A1 in comparison with the rest of tracks. Can it be fixed?
    could You please make just new rip of the track A1?

  3. Thanks a lot, but part 5 seems not to be possible to download:
    “File Unavailable

    This file cannot be downloaded at this time. Please let us know about this issue by using the contact link below.

    Please contact support if you require further assistance.”

  4. I am deeply into religious music. Even deeper into Requiems. And this one is one of the greatest pieces of music of that genre. Special and heartfelt thanks!

  5. One of my all-time favorite recordings, and this upload puts the latest CD release to shame, as the CD sounds flat and lacks punch.

    I seem to recall (correctly I hope) that the engineers were crestfallen that they’d set the recording levels too high on the Dies Irae (track 3) as the chorus comes in distorted. But at playback, Guilini pronounced that he loved it as it lent additional expression of the passion present in that section of the piece.

    I can’t thank you enough, Rach, for this upload. Your site is one of my most treasured discoveries. My heartfelt thanks to all that contribute to it.

  6. Thank you so much for this wonderful upload. I have only 5 of the 19 files showing up on File Factory. This is my first use – so am I missing something?

    • You should have 5 archives (xxxx.part 1.rar to xxxx.part2.rar). Normally on double clicking the first archive (part.1) all archives will be opened automatically. Avoid to DL with a JDLoader…and avoid to stop and reprise the DLs. Better you repeat your DL now, without breaks…

Leave a Reply