HD-Vinyls 24/96 (EMI) Giuseppe Verdi – Rigoletto (Milnes/Sills/Kraus)

 front-small-boxset
Although my personal favourite – and IHMO best version on earth – the Sutherland/Pavarotti/Milnes recording from 1973 is, this Rigoletto is absolutely wonderful. Rudel conducted firmly but not magnificently, but the cast is magnificent. Milnes (also the title role in the Rigoletto with Sutherland and Pavarotti) is the best ever, no doubt. Always touching and powerful, his acting is amazing and his screams of “Gilda! Mia Gilda! Ah, la maledizione!” are unrivalled. Without any doubt, Milnes is one of the greatest baritones ever been on earth

# Composer: Giuseppe Verdi
# Performers:
Alfredo Kraus, Sherrill Milnes, Beverly Sills, Samuel Ramey, Mignon Dunn
# Orchestra: Philarmonia Orchestra
# Condu
ctor: Julius Rudel
# Vinyl (1979)
# Number of Discs: 2.5
# Format: Flac
# Label: EMI
# DR-Analysis: DR 14
# ASIN CD: B000002S7K

# Size: 2.37 GB
# Scan: yes
# Server: FF

This recording of Verdi’s dark opera Rigoletto is a fine studio recording with good singers and good orchestration when you really think about it. It’s true that the lead singers are past their primes and their vocals, though well-trained and dramatically convincing, do not pack a punch as good as they used to in their salad days of the 60’s. Only Sherril Milnes and Samuel Ramey, both baritones, deliver a noteworthy performance. Samuel Ramey is in fine singing condition and he had only been singing professionally very recently. In fact, if you are a fan of Ramey, this would count as one of his oldest recordings and his voice is superb here. This is a recording dating from 1978. By then, Beverly Sills and Alfredo Kraus were much older (Sills was approaching her fifties and Alfredo Kraus had also past his glory days as tenor) but nonetheless this is a well delivered opera recording as a whole. It can get you interested the entire opera and perhaps when you do buy the whole opera you can get superior singers and a much loved recording. It’s a sort of “introduction” to opera. The same can apply to the recordings of “Barber Of Seville” and “La Traviata”, also under the baton of maestro Julius Rudel and starring Beverly Sills- which were also made in the late 70’s.

The strength of Verdi’s Rigoletto lies squarely on its powerful drama. The tragic plot revolves around a court jester (Rigoletto- Milnes) who is employed in the service of an extremely decadent and corrupt Duke (Kraus). The Duke’s first aria shows him to be a womanizer (Questa o Quella) along the lines of Don Giovanni. When Rigoletto insults a deformed guest at the Duke’s party Monterrone, Rigoletto is cursed. Later, the curse comes into effect when the Duke seduces Rigoletto’s daughter Gilda (Sills) only to rape her and toss her aside for his next conquest. When Rigoletto hears of the Duke’s awful crime from Gilda herself, he vows revenge. He hires a hit man Sparafucile (Samuel Ramey) who accidentally has Gilda killed instead. The Duke gets away with his awful behavior scot-free and in Rigoletto’s last lines he remembers the curse (La Maledizione!). This dark plot was Verdi’s newest attempt to provide characters that were neither dark or light, good or bad but falling in a more flawed and human middle ground. Rigoletto inadvertently has killed his own daughter and the evil Duke goes unpunished. It is a character study on the character of Rigoletto- mainly his desire for revenge.

For a soon to be 50 Beverly Sills she does manage to pull off an impressive Gilda – frail, innocent and daydreaming of romance. Nowhere is this more vividly expressed than in her aria “Gualter Made”. Sills’ soaring, light legato is beautiful to hear. Though she is a mature sounding soprano by the time of this recording, she still does a great job, coming into the very same ground that sopranos like June Anderson and even the ultimate diva Maria Callas walked- both Anderson and Callas sang Gilda, even if the role is calling for a vulnerable, teenage-sounding kind of soprano, All in all a great recording. And Julius Rudel conducts with superb aplomb…especially noteworthy is the exchange of recitatives between Milnes and Ramey early in the opera which is underscored by strings. And the finale is to die for.
———————————————————————————————-
Analyzed folder: /96kGV_Rig(KraSilMil)/96k Verdi – Rigoletto – Kraus, Mills, Milnes
———————————————————————————————-
DR        Peak        RMS        Filename
———————————————————————————————-
DR14        -0.33 dB     -20.56 dB     sideA.wav
DR14        -1.14 dB     -19.99 dB     sideB.wav
DR15        -0.56 dB     -22.13 dB     sideC.wav
DR15        -0.91 dB     -21.31 dB     sideD.wav
DR14        -0.51 dB     -20.68 dB     sideE.wav
———————————————————————————————-
Number of files:    5
Official DR value:    DR14
==============================================================================================

Ripping Infos

Monitoring

If You hear some clicks and pops here and there, Who cares? Id rather have a few light anomalies instead of destroying the music. Enjoy the music, not the ticks & pops. I tend more and more, in the last time, to de-click with an automatic setting between 1.0 and 1.2 so you can say, my rips are like half rough rips.

  • Software: iZotope RX 4 Advanced, Adobe Audition CS 5.5, Twisted Wave 1.9
  • Very light de-clicking with iZotope, significant clicks manually removing, no de-noising
  • DR-Analisys before converting to Flac
  • Converting Wave -> Flac: Twisted Wave 1.9
  • Artwork: Sony Alpha 350, Epson Perfection V750 Pro, Photoshop CS 5.5

DONATION !
If you like what i do, please consider that a little donation would be very appreciate.
I reinvest all donations in maintenance of my rig, for purchasing cleaning solutions and, most important of all, purchasing of new vinyls.
Click on the “Donate”-button.

Thank you very much !

Download from FileFactory
6 archives

PW: LaWally

 

Leave a comment ?

10 Comments.

  1. thank you very much!now i really like sills,but before i dont like hers voice colour,in first to listen hers “Da tempeste il legno infranto” powerful voice, she can fast trills and fast staccato,amazing!great Beverly Sills!

  2. Milnes is incredible, and you 24/96 Hi Def makes it even more thrilling!

    Bravo signor Rach, you’ve made Rigoletto rock! Thank you!
    Bob

  3. You are correct; it was not one of mine. I had it in the US production of EMI, but the 24/96 Hi Def is what I long for like this in all those I gave you.
    Your skill just amazes me; and I am so grateful Grossneffe!

    Just had my 78th birthday on the 10th of this month. I am in your debt.
    Bob

  4. Happy Birthday Bob and happy listening. Thank you once again Rach. It would seem every day is my birthday. I didn’t know about this Rig. Thank you forall the many wonderous gifts. Loris

  5. Thank You. Amazing.

  6. Please can u reupload the links. Links 5th and 6th doesn’t exist.

    Thank you very much

  7. Thank you for the new links! You are great||

Leave a Comment