HD-Vinyls 24/96 (Eterna) Fryderyk Chopin – Piano Concert No. 2 (Rubinstein/Wallenstein)


The sounds coming off this disc is among the most beautiful ever committed to a mechanical recording device. No, I don’t mean the recorded sound — I mean the sound produced by a living human musician on his piano. This includes such items that no microphone technique can efface, however poor it may be: impeccable legato, perfect phrasing, living inside the music with your imagination, bringing it to life in vibrant splendour. The actual sound coming out of your loudspeakers may not be as luminous when you compare them to a modern rexording. But this is music-making, not record making! This is Chopin, not musical wallpaper. You have to engage your heart together with your ears, or you’ll lose the plot!. Since Rubinstein’s recordings are made so long ago, the recording quality certainly will not be as sophisticated as the present but if we can concentrate on his musicality, his beautiful tone color, performances that has virtuosity but the most important thing brought forward is making music, it is a joy and inspiring to listen to him being an artist and not simply a mechanic. There is no one “correct” way to interpret any piece of music, you just have to find the performance that you like the most but Rubinstein’s performances certainly rank right up there for many people. You don’t have to be musically educated to enjoy art, just listen, look, and react the way you feel. Enjoy!

Composer: Fryderyk Chopin
Performer: Artur Rubinstein
Orchestra: Symphony Of The Air Orchestra
Conductor: Alfred Wallenstein
Vinyl 1959/1975

Number of Discs: 1
Format: FLAC
Label: ETERNA
DR-Analysis: DR 14
Size: 797 MB
Scan: yes
Server: FF

 

Tracklist

  Konzert Nr. 2 F-moll Op. 21 Für Klavier Und Orchester  
A1 1. Maestoso 13:08
A2 2. Larghetto 8:30
B1 3. Allegro Vivace 8:00
B2 Andante Spianato Und Grande Polonaise Es-dur Op. 22 13:56

———————————————————————————————-
Analyzed Folder: /96k Chopin – Piano Concerto No. 2 – Rubinstein
———————————————————————————————-
DR Peak RMS Filename
———————————————————————————————-

DR14 -0.75 dB -19.66 dB A1 Piano Concerto No. 2 F-Minor – 1. Maestoso.flac
DR14 -1.33 dB -21.00 dB A2 Piano Concerto No. 2 F-Minor – 2. Larghetto.flac
DR14 -0.75 dB -20.86 dB B1 Piano Concerto No. 2 F-Minor – 3. Allegro Vivace.flac
DR16 -0.79 dB -22.84 dB B2 Andante Spianato Und Grande Polonaise Es-dur Op. 22.flac
———————————————————————————————-

Number of Files: 4
Official DR Value: DR14

==============================================================================================

Credits

  • Artwork [Gestaltung] – Axel Dehlsen
  • Composed By – Fryderyk Chopin
  • Conductor – Alfred Wallenstein
  • Liner Notes – Eberhard Rebling
  • Orchestra – Symphony Of The Air Orchestra
  • Photography By – RCA
  • Piano – Artur Rubinstein

Ripping Info

Monitoring

  • Software: iZotope RX 5 Advanced, Adobe Audition CS 5.5, Twisted Wave 1.18
  • Very careful de-clicking with iZotope, significant clicks manually removed, never de-noising
  • DR-Analisys
  • Wave 32/192(32/384) —> Flac 24/96(24/192): Twisted Wave 1.18
  • Artwork: Sony Alpha 350, Epson Perfection V750 Pro, Photoshop CS 5.5

 

 

9 thoughts on “HD-Vinyls 24/96 (Eterna) Fryderyk Chopin – Piano Concert No. 2 (Rubinstein/Wallenstein)

  1. Its a paradoxum that Rubinstein the Capitalist was released
    by the DDR Label Eterna..I think it was done for the Polish market and for the fans in Lodz. (Poland was a major market for Eterna) anyway a great RCA recording by the legendary Max Wilcox. I will add the Eterna release to my collection although I have the Original. Thanks Alf. Trottar

Leave a Reply