HD-Vinyls 24/96 (Hör Zu/Teldec) Mario Lanza Sings/The Unforgotten Voice

front-small-boxset For those who love the greatest and grandest of voices, Mario Lanza was the benchmark. He was the standard by which all tenors and singers should measure themselves. His versatility and ability to cross over from opera to popular music, and his ability to bring classical opera to the common person through his movies. The emotion and passion that he transmitted is incomparable. This collection represents him well and is an investment for those who want to know the best and brightest of stars in the world of music.

Composer: many different
Performer: Mario Lanza

Vinyl (1964)
Number of Discs: 1
Format: Flac
Label: Hör Zu/Teldec
DR-Analysis: DR 14
Size: 985 MB
Scan: yes
Server: FileFactory




A1 Funiculi’ Funicula’  
A2 Maria Mari  
A3 Lady Of Spain  
A4 Be My Love  
A5 Serenade  
A6 Marechiare  
A7 The Loveliest Night Of The Year  
B1 Toselli-Serenade  
B2 Musica Proibita  
B3 Heimlich Aus Ihrem Auge (Una Furtiva Lacrima)
B4 O Wie So Trügerisch (La Donna E’ Mobile)
B5 Himmel Und Meer (Cielo E Mar)
B6 Freundlich Blick Ich (Questa O Quella)
B7 Hüll’ Dich In Tand (Vesti La Giubba)
 Analyzed folder: /96k Mario Lanza Recital
 DR        Peak        RMS        Filename
 DR11        -1.18 dB     -16.00 dB     A1 Funiculi’ Funicula’.aif
 DR12        -1.60 dB     -17.96 dB     A2 Maria Mari.aif
 DR9        -1.90 dB     -13.18 dB     A3 Lady Of Spain.aif
 DR9        -1.11 dB     -13.79 dB     A4 Be My Love.aif
 DR10        -1.19 dB     -14.22 dB     A5 Serenade.aif
 DR10        -1.37 dB     -14.36 dB     A6 Marechiare.aif
 DR9        -2.60 dB     -14.75 dB     A7 The Loveliest Night Of The Year.aif
 DR10        -0.88 dB     -15.09 dB     B1 Toselli-Serenade.aif
 DR10        -4.67 dB     -18.04 dB     B2 Musica Proibita.aif
 DR11        -2.79 dB     -18.18 dB     B3 Heimlich Aus Ihrem Auge (Una Furtiva Lacrima).aif
 DR11        -1.23 dB     -15.70 dB     B4 O Wie So Truegerisch (La Donna E’ Mobile).aif
 DR11        -2.12 dB     -17.28 dB     B5 Himmel Und Meer (Cielo E Mar).aif
 DR10        -1.36 dB     -14.83 dB     B6 Freundlich Blick Ich (Questa O Quella).aif
 DR11        -1.58 dB     -17.34 dB     B7 Huell’ Dich In Tand (Vesti La Giubba).aif
 Number of files:    14
 Official DR value:    DR10

Ripping Info


If You hear some clicks and pops here and there, Who cares?
Id rather have a few light anomalies instead of destroying the music.
Enjoy the music, not the ticks & pops.
My rips are almost rough rips.

  • Software: iZotope RX 4 Advanced, Adobe Audition CS 5.5, Twisted Wave 1.9
  • Super light de-clicking with iZotope, significant clicks manually removing, no de-noising
  • DR-Analisys before converting to Flac
  • Converting Wave -> Flac: Twisted Wave 1.9
  • Artwork: Sony Alpha 350, Epson Perfection V750 Pro, Photoshop CS 5.5

If you like what i do, please consider that a little donation would be very appreciate.
I reinvest all donations in maintenance of my rig, for purchasing cleaning solutions and, most important of all, purchasing of new vinyls.
Click on the “Donate”-button.

Thank you very much !

Download from FileFactory
2 archives
PW: LaWally

8 thoughts on “HD-Vinyls 24/96 (Hör Zu/Teldec) Mario Lanza Sings/The Unforgotten Voice

  1. What a thrilling, exciting voice. He not only had the instrument, and the technique, but he knew how to sell and deliver a melody.
    A very welcome gift, Alf.
    отличный, прекрасный
    Che bravo!

Leave a Reply