HD-Vinyls 24/96 (Intercord) A Bach-Box


A big “thank you” for this gem flights to our friend Dagote  😀
Friends, don’t let distract you by the fact, that you probably don’t know a single name of the artists on this box. To go over these recordings would be a sin. Believe me when I tell you, these efforts are 1st class, from the 1st to the last. And the sound is very good. Enjoy!

Composer: Johann Sebastian Bach
Orchestra: Württembergisches Kammerorchester, Bachcollegium Stuttgart, Süddeutsche Kammer-Philharmonie
Vinyl 1975
Number of Discs: 5
Format: FLAC
Label: Intercord
DR-Analysis: DR 13
Size: 3.54 GB
Scan: yes
Server: FF

Tracklist

  Brandenburgisches Konzert Nr. 1 F-Dur BWV 1046

Bassoon – Erich ThiemeConductor – Jörg FaerberFrench Horn [I] – Erich PenzelFrench Horn [II] – Helmuth Irmscher*Harpsichord – Martin GallingOboe [I] – Willy SchnellOboe [II] – Dietmar KellerOboe [III] – Gustav SteinertOrchestra – Württembergisches KammerorchesterViolin [Piccolo] – Susanne Lautenbacher

(20:48)
A1.a Alegro  
A1.b Adagio  
A1.c Menuetto  
A1.d Polacca  
  Brandenburgisches Konzert Nr. 2 F-Dur BWV 1047

Cello [Continuocello] – Peter Buck (2)Conductor – Jörg FaerberFlute [Flauto] – Hartmut StrebelHarpsichord – Martin GallingOboe – Willy SchnellOrchestra – Württembergisches KammerorchesterTrumpet [Tromba] – Helmut SchneidewindViolin – Susanne Lautenbacher

(11:58)
A2 Ohne Bezeichnung (Allegro Moderato)  
B1.a Andante  
B1.b Allegro Assai  
  Brandenburgisches Konzert Nr. 6 B-Dur BWV 1051

Cello [Violoncello] – Peter Buck (2)Harpsichord – Martin GallingViola [Viola Da Braccia I] – Ulrich KochViola [Viola Da Braccia II] – Fritz RufViola [Viola Da Gamba I] – Johannes KochViola [Viola Da Gamba II] – Heinrich HaferlandViolin [Violone] – Siegfried Uhl

(19:42)
B2.a Allegro  
B2.b Adagio Ma Non Troppo  
B2.c Allegro  
  Brandenburgisches Konzert Nr. 3 G-Dur BWV 1048

Conductor – Jörg FaerberOrchestra – Württembergisches Kammerorchester

(11:08)
C1.a Ohne Bezeichnung (Allegro)  
C1.b Adagio  
C1.c Allegro  
  Brandenburgisches Konzert Nr. 4 G-Dur BWV 1049

Conductor – Jörg FaerberFlute [Flauto] – Gerhard Braun, Hartmut StrebelHarpsichord – Martin GallingOrchestra – Württembergisches KammerorchesterViolin – Susanne Lautenbacher

(17:05)
C2.a Alegro  
C2.b Andante  
C2.c Presto  
  Brandenburgisches Konzert Nr. 5 D-Dur BWV 1050

Cello – Peter Buck (2)Conductor – Jörg FaerberFlute – Helmut SteinkrausHarpsichord – Martin GallingOrchestra – Württembergisches KammerorchesterViolin – Susanne Lautenbacher

(22:30)
D1.a Allegro  
D1.b Affettuoso  
D1.c Allegro  
E1 Toccata Und Fuge F-Dur BWV 540

Organ – Franz Lehrndorfer

12:25
E2 Präludium Und Fuge D-Dur BWV 532

Organ – Franz Lehrndorfer

10:00
  Messe In F-Dur BWV 233

Alto Vocals – Ingeborg RußBass Vocals – Jakob Stämpfli*Chorus – Gächinger Kantorei*Conductor – Helmuth RillingOboe – Willy SchnellOrchestra – Bachcollegium StuttgartSoprano Vocals – Elisabeth SpeiserViolin – Werner Keltsch

(28:42)
F1 Kyrie  
F2 Gloria  
F3 Domine Deus  
F4 Qui Tollis Quoniam Tu Solus  
F5 Cum Sancto Spiritus  
  Konzert E-Dur Für Violine Und Streichorchester BWV 1042

Orchestra – Süddeutsche Kammer-Philharmonie, StuttgartViolin – Hans Kalafusz

(20:07)
G1.a Allegro  
G1.b Adagio  
G1.c Allegro Assai  
  Konzert E-Moll Für Violine Und Streichorchester BWV 1043

Orchestra – Süddeutsche Kammer-Philharmonie, StuttgartViolin – Hans Kalafusz, Wolfgang Rösch (2)

(16:45)
H1.a Vivace  
H1.b Largo Ma Non Tanto  
H1.c Allegro  
  Goldberg-Variationen Aria Mit 30 Veränderungen BWV 988

Harpsichord – Marga Scheurich

 
I1.a Variatio 1 A 1 Clav.  
I1.b Variatio 2 A 1 Clav.  
I1.c Variatio 3 Canone All’Unisono A 1 Clav.  
I1.d Variatio 4 A 1 Clav.  
I1.e Variatio 5 1 Ovvero 2 Clav.  
I1.f Variatio 6 Canone Alla Seconda A 1 Clav.  
I1.g Variatio 7 1 Ovvero 2 Clav.  
I1.h Variatio 8 A 2 Clav.  
I1.i Variatio 9 Canone Alla Terza A 1 Clav.  
I1.j Variatio 10 Fughetta A 1 Clav.  
I1.k Variatio 11 A 2 Clav.  
I1.l Variatio 12 Canone Alla Quarta  
I1.m Variatio 13 A 2 Clav.  
I1.n Variatio 14 A 2 Clav.  
I1.o Variatio 15 Canone Alla Quinta In Moto Contrario  
J1.a Variatio 16 Overtüre A 1 Clav.  
J1.b Variatio 17 A 2 Clav.  
J1.c Variatio 18 Canone Alla Sesta A 1 Clav.  
J1.d Variatio 19 A 1 Clav.  
J1.e Variatio 20 A 2 Clav.  
J1.f Variatio 21 Canone Alla Settima  
J1.g Variatio 22 Alla Breve A 1 Clav.  
J1.h Variatio 23 A 2 Clav.  
J1.i Variatio 24 Canone All’Ottava A 1 Clav.  
J1.j Variatio 25 A 2 Clav.  
J1.k Variatio 26 A 1 Clav.  
J1.l Variatio 27 Canone Alla Nona  
J1.m Variatio 28 A 2 Clav.  
J1.n Variatio 29 A 1 Ovvero 2 Clav.  
J1.o Variatio 30 Quodlibet A 1 Clav  
J1.p Aria  

 

———————————————————————————————-
Analyzed Folder: /96k JSB-Box_dr.txt
———————————————————————————————-
DR Peak RMS Filename
———————————————————————————————-

DR10 -1.11 dB -14.65 dB A1 Brandenburgisches Konzert Nr. 1 F-Dur BWV 1046 – Allegro.flac
DR12 -5.89 dB -23.01 dB A2 Brandenburgisches Konzert Nr. 1 F-Dur BWV 1046 – Adagio.flac
DR10 -0.69 dB -13.99 dB A3 Brandenburgisches Konzert Nr. 1 F-Dur BWV 1046 – Menuetto.flac
DR11 -2.61 dB -18.40 dB A4 Brandenburgisches Konzert Nr. 1 F-Dur BWV 1046 – Polacca.flac
DR11 -1.06 dB -14.71 dB A5 Brandenburgisches Konzert Nr. 2 F-Dur BWV 1047 – Ohne Bezeichnung (Allegro Moderato).flac
DR10 -8.62 dB -22.45 dB B1 Brandenburgisches Konzert Nr. 2 F-Dur BWV 1047 – Andante.flac
DR10 -0.59 dB -13.72 dB B2 Brandenburgisches Konzert Nr. 2 F-Dur BWV 1047 – Allegro Assai.flac
DR11 -0.71 dB -14.59 dB B3 Brandenburgisches Konzert Nr. 6 B-Dur BWV 1051 – Allegro.flac
DR12 -3.97 dB -19.08 dB B4 Brandenburgisches Konzert Nr. 6 B-Dur BWV 1051 – Adagio Ma Non Troppo.flac
DR12 -1.81 dB -15.48 dB B5 Brandenburgisches Konzert Nr. 6 B-Dur BWV 1051 – Allegro.flac
DR11 -1.69 dB -16.54 dB C1 Brandenburgisches Konzert Nr. 3 G-Dur BWV 1048 – Ohne Bezeichnung (Allegro).flac
DR12 -11.19 dB -28.15 dB C2 Brandenburgisches Konzert Nr. 3 G-Dur BWV 1048 – Adagio.flac
DR11 -0.87 dB -15.38 dB C3 Brandenburgisches Konzert Nr. 3 G-Dur BWV 1048 – Allegro.flac
DR12 -3.00 dB -19.50 dB C4 Brandenburgisches Konzert Nr. 4 G-Dur BWV 1049 – Allegro.flac
DR11 -5.01 dB -20.03 dB C5 Brandenburgisches Konzert Nr. 4 G-Dur BWV 1049 – Andante.flac
DR11 -1.00 dB -15.10 dB C6 Brandenburgisches Konzert Nr. 4 G-Dur BWV 1049 – Presto.flac
DR12 -0.59 dB -17.69 dB D1 Brandenburgisches Konzert Nr. 5 D-Dur BWV 1050 – Allegro.flac
DR11 -8.87 dB -24.79 dB D2 Brandenburgisches Konzert Nr. 5 D-Dur BWV 1050 – Affettuoso.flac
DR13 -3.35 dB -20.32 dB D3 Brandenburgisches Konzert Nr. 5 D-Dur BWV 1050 – Allegro.flac
DR12 -0.99 dB -16.06 dB E1 Toccata Und Fuge F-Dur BWV 5040.flac
DR11 -0.50 dB -16.02 dB E2 Praeludium Und Fuge D-Dur BWV 532.flac
DR10 -0.99 dB -16.50 dB F1 Messe In F-Dur BWV 233 – Kyrie.flac
DR12 -0.34 dB -16.07 dB F2 Messe In F-Dur BWV 233 – Gloria.flac
DR12 -1.12 dB -18.27 dB F3 Messe In F-Dur BWV 233 – Domine Deus.flac
DR14 -2.49 dB -21.92 dB F4 Messe In F-Dur BWV 233 – Qui Tollis.flac
DR14 -2.72 dB -21.18 dB F5 Messe In F-Dur BWV 233 – Quoniam Tu Solus.flac
DR12 -0.94 dB -16.91 dB F6 Messe In F-Dur BWV 233 – Cum Sancto Spiritus.flac
DR12 -0.42 dB -16.29 dB G1 Konzert E-Dur Fuer Violine Und Streichorchester BWV 1042 – Allegro.flac
DR14 -4.16 dB -22.31 dB G2 Konzert E-Dur Fuer Violine Und Streichorchester BWV 1042 – Adagio.flac
DR11 -1.12 dB -15.13 dB G3 Konzert E-Dur Fuer Violine Und Streichorchester BWV 1042 – Allegro Assai.flac
DR11 -0.93 dB -15.29 dB H1 Konzert E-Moll Fuer Violine Und Streichorchester BWV 1043 – Vivace.flac
DR13 -3.91 dB -21.68 dB H2 Konzert E-Moll Fuer Violine Und Streichorchester BWV 1043 – Largo Ma Non Tanto.flac
DR11 -0.29 dB -15.39 dB H3 Konzert E-Moll Fuer Violine Und Streichorchester BWV 1043 – Allegro.flac
DR12 -8.66 dB -24.53 dB I01 Goldberg-Variationen Aria Mit 30 Veraenderungen BWV 988 – Aria.flac
DR11 -2.88 dB -15.81 dB I02 Goldberg-Variationen Aria Mit 30 Veraenderungen BWV 988 – Variatio 1 A 1 Clav..flac
DR11 -6.13 dB -18.89 dB I03 Goldberg-Variationen Aria Mit 30 Veraenderungen BWV 988 – Variatio 2 A 1 Clav..flac
DR10 -7.27 dB -20.58 dB I04 Goldberg-Variationen Aria Mit 30 Veraenderungen BWV 988 – Variatio 3 Canone All’Unisono A 1 Clav..flac
DR12 -1.25 dB -17.26 dB I05 Goldberg-Variationen Aria Mit 30 Veraenderungen BWV 988 – Variatio 4 A 1 Clav..flac
DR10 -7.12 dB -20.35 dB I06 Goldberg-Variationen Aria Mit 30 Veraenderungen BWV 988 – Variatio 5 1 Ovvero 2 Clav..flac
DR11 -5.61 dB -18.92 dB I07 Goldberg-Variationen Aria Mit 30 Veraenderungen BWV 988 – Variatio 6 Canone Alla Seconda A 1 Clav..flac
DR10 -4.76 dB -18.17 dB I08 Goldberg-Variationen Aria Mit 30 Veraenderungen BWV 988 – Variatio 7 1 Ovvero 2 Clav..flac
DR11 -5.33 dB -18.91 dB I09 Goldberg-Variationen Aria Mit 30 Veraenderungen BWV 988 – Variatio 8 A 2 Clav..flac
DR10 -2.92 dB -17.28 dB I10 Goldberg-Variationen Aria Mit 30 Veraenderungen BWV 988 – Variatio 9 Canone Alla Terza A 1 Clav..flac
DR11 -0.30 dB -13.23 dB I11 Goldberg-Variationen Aria Mit 30 Veraenderungen BWV 988 – Variatio 10 Fughetta A 1 Clav..flac
DR10 -4.64 dB -17.34 dB I12 Goldberg-Variationen Aria Mit 30 Veraenderungen BWV 988 – Variatio 11 A 2 Clav..flac
DR11 -1.05 dB -14.93 dB I13 Goldberg-Variationen Aria Mit 30 Veraenderungen BWV 988 – Variatio 12 Canone Alla Quarta.flac
DR11 -7.79 dB -21.55 dB I14 Goldberg-Variationen Aria Mit 30 Veraenderungen BWV 988 – Variatio 13 A 2 Clav..flac
DR11 -5.32 dB -19.20 dB I15 Goldberg-Variationen Aria Mit 30 Veraenderungen BWV 988 – Variatio 14 A 2 Clav..flac
DR11 -9.64 dB -24.10 dB I16 Goldberg-Variationen Aria Mit 30 Veraenderungen BWV 988 – Variatio 15 Canone Alla Quinta In Moto Contrario.flac
DR12 -1.06 dB -14.82 dB J01 Goldberg-Variationen Aria Mit 30 Veraenderungen BWV 988 – Variatio 16 Overtuere A 1 Clav..flac
DR11 -6.46 dB -18.86 dB J02 Goldberg-Variationen Aria Mit 30 Veraenderungen BWV 988 – Variatio 17 A 2 Clav..flac
DR11 -8.39 dB -21.30 dB J03 Goldberg-Variationen Aria Mit 30 Veraenderungen BWV 988 – Variatio 18 Canone Alla Sesta A 1 Clav..flac
DR12 -5.01 dB -18.82 dB J04 Goldberg-Variationen Aria Mit 30 Veraenderungen BWV 988 – Variatio 19 A 1 Clav..flac
DR11 -6.72 dB -19.45 dB J05 Goldberg-Variationen Aria Mit 30 Veraenderungen BWV 988 – Variatio 20 A 2 Clav..flac
DR12 -10.44 dB -24.26 dB J06 Goldberg-Variationen Aria Mit 30 Veraenderungen BWV 988 – Variatio 21 Canone Alla Settima.flac
DR10 -0.75 dB -14.14 dB J07 Goldberg-Variationen Aria Mit 30 Veraenderungen BWV 988 – Variatio 22 Alla Breve A 1 Clav..flac
DR11 -7.17 dB -21.10 dB J08 Goldberg-Variationen Aria Mit 30 Veraenderungen BWV 988 – Variatio 23 A 2 Clav..flac
DR12 -6.13 dB -19.86 dB J09 Goldberg-Variationen Aria Mit 30 Veraenderungen BWV 988 – Variatio 24 Canone All’Ottava A 1 Clav..flac
DR12 -7.13 dB -22.09 dB J10 Goldberg-Variationen Aria Mit 30 Veraenderungen BWV 988 – Variatio 25 A 2 Clav..flac
DR11 -2.60 dB -16.60 dB J11 Goldberg-Variationen Aria Mit 30 Veraenderungen BWV 988 – Variatio 26 A 1 Clav..flac
DR10 -6.53 dB -19.93 dB J12 Goldberg-Variationen Aria Mit 30 Veraenderungen BWV 988 – Variatio 27 Canone Alla Nona.flac
DR10 -6.60 dB -20.15 dB J13 Goldberg-Variationen Aria Mit 30 Veraenderungen BWV 988 – Variatio 28 A 2 Clav..flac
DR11 -0.17 dB -13.46 dB J14 Goldberg-Variationen Aria Mit 30 Veraenderungen BWV 988 – Variatio 29 A 1 Ovvero 2 Clav..flac
DR11 -0.46 dB -14.20 dB J15 Goldberg-Variationen Aria Mit 30 Veraenderungen BWV 988 – Variatio 30 Quodlibet A 1 Clav..flac
DR12 -10.97 dB -25.24 dB J16 Goldberg-Variationen Aria Mit 30 Veraenderungen BWV 988 – Aria.flac
———————————————————————————————-

Number of Files: 65
Official DR Value: DR11

==============================================================================================

 

 

Ripping Info

Monitoring

  • Software: iZotope RX 5 Advanced, Adobe Audition CS 5.5, Twisted Wave 1.18
  • Very careful de-clicking with iZotope, significant clicks manually removed, never de-noising
  • DR-Analisys
  • Wave 32/192(32/384) —> Flac 24/96(24/192): Twisted Wave 1.18
  • Artwork: Sony Alpha 350, Epson Perfection V750 Pro, Photoshop CS 5.5

 

 

9 thoughts on “HD-Vinyls 24/96 (Intercord) A Bach-Box”

Leave a Reply