HD-Vinyls 24/96 (Melodya) Sviatoslav Richter Plays Schumann, Brahms, Beethoven, Rachmaninov


Many thanks to our friend Trottar for this hidden gem
Sviatoslav Teofilovich Richter (Russian: Святосла́в Теофи́лович Ри́хтер, tr. Sviatosláv Teofílovich Ríkhter; IPA: [svʲjətɐsˈlaf tʲɪɐˈfʲiləvʲɪtɕ ˈrʲixtər]; March 20 [O.S. March 7] 1915 – August 1, 1997) was a Soviet pianist known for the “depth of his interpretations, his virtuoso technique, and his vast repertoire.” He is generally regarded as one of the greatest pianists of the 20th century.
I think, there is nothing more to say about Richter, that’s not been said.
Enjoy one of the greatest artists ever!

Composer: Sergei Rachmaninov, Robert Schumann, Johannes Brahms, Ludwig van Beethoven
Performer:
Sviatoslav Richter
Vinyl 1983?

Number of Discs: 3
Format: FLAC
Label: Melodya
DR-Analysis: DR 13
Size: 2.36 GB
Scan: yes
Server: FF

 

———————————————————————————————-
Analyzed Folder: /96k Sviatoslav Richter_dr.txt
———————————————————————————————-
DR Peak RMS Filename
———————————————————————————————-

DR13 -9.54 dB -27.24 dB A01 Schumann – Bunte Blaetter – Three Little Pieces – 1. Nicht Zu Schnell, Mit Feurigkeit.flac
DR10 -3.05 dB -16.51 dB A02 Schumann – Bunte Blaetter – Three Little Pieces – 2. Sehr Rasch.flac
DR10 -1.15 dB -14.88 dB A03 Schumann – Bunte Blaetter – Three Little Pieces – 3. Frisch.flac
DR18 -10.27 dB -34.92 dB A04 Schumann – Bunte Blaetter – Five Leaves From The Album – 1. Ziemlich Langsam.flac
DR10 -1.54 dB -17.94 dB A05 Schumann – Bunte Blaetter – Five Leaves From The Album – 2. Schnell.flac
DR16 -9.07 dB -32.17 dB A06 Schumann – Bunte Blaetter – Five Leaves From The Album – 3. Ziemlich Langsam, Sehr Gesangvoll.flac
DR14 -1.64 dB -22.98 dB A07 Schumann – Bunte Blaetter – Five Leaves From The Album – 4. Sehr Langsam.flac
DR14 -6.53 dB -30.00 dB A08 Schumann – Bunte Blaetter – Five Leaves From The Album – 5. Langsam.flac
DR11 -0.47 dB -15.23 dB A09 Schumann – Bunte Blaetter – Novelette – Lebhaft.flac
DR9 -0.87 dB -11.97 dB A10 Schumann – Bunte Blaetter – Prelude – Energisch.flac
DR16 -0.89 dB -22.41 dB A11 Schumann – Bunte Blaetter – March – Sehr Getragen.flac
DR20 -2.44 dB -27.34 dB B1 Schumann – Bunte Blaetter – Evening Music – Menuett-Tempo.flac
DR11 -0.48 dB -16.08 dB B2 Schumann – Bunte Blaetter – Scherzo – Lebhaft.flac
DR12 -0.95 dB -18.01 dB B3 Schumann – Bunte Blaetter – Quick March – Sehr Markiert.flac
DR12 -2.50 dB -18.37 dB B4 Brahms – Three Pieces From Op. 118 – Intermezzo In C Major (No. 1).flac
DR11 -0.81 dB -17.39 dB B5 Brahms – Three Pieces From Op. 118 – Ballade In G Minor (No. 3).flac
DR12 -0.58 dB -20.56 dB B6 Brahms – Three Pieces From Op. 118 – Intermezzo In E Flat Minor (No. 6).flac
DR15 -0.98 dB -22.35 dB C1 LvB – Piano Sonata No. 27 in E minor, Op. 90 – I. Con vivicita’ e sempre con sentimento ed espressione.flac
DR15 -1.22 dB -22.39 dB C2 LvB – Piano Sonata No. 27 in E minor, Op. 90 – II. Non troppo presto e molto cantabile.flac
DR15 -3.90 dB -30.41 dB C3 Schumann – Etudes Symphoniques, Op.13 – Thema. Andante.flac
DR13 -5.30 dB -23.16 dB C4 Schumann – Etudes Symphoniques, Op.13 – Etude I. (Variation I.) – Un poco piu’ vivo.flac
DR11 -1.35 dB -16.38 dB C5 Schumann – Etudes Symphoniques, Op.13 – Etude II. (Variation II.) – Marcato il canto.flac
DR12 -4.61 dB -23.61 dB C6 Schumann – Etudes Symphoniques, Op.13 – Etude III. Vivace.flac
DR11 -0.40 dB -14.41 dB C7 Schumann – Etudes Symphoniques, Op.13 – Etude IV (Variation III.).flac
DR14 -2.45 dB -21.67 dB C8 Schumann – Etudes Symphoniques, Op.13 – Etude V. (Variation IV.).flac
DR11 -2.99 dB -18.36 dB C9 Schumann – Etudes Symphoniques, Op.13 – Variation post. I.flac
DR15 -2.08 dB -22.89 dB D01 Schumann – Etudes Symphoniques, Op.13 – Variation post. II.flac
DR12 -0.71 dB -18.47 dB D02 Schumann – Etudes Symphoniques, Op.13 – Variation post. III.flac
DR15 -5.71 dB -27.51 dB D03 Schumann – Etudes Symphoniques, Op.13 – Variation post. IV.flac
DR15 -6.16 dB -27.52 dB D04 Schumann – Etudes Symphoniques, Op.13 – Variation post. V.flac
DR9 -1.76 dB -13.98 dB D05 Schumann – Etudes Symphoniques, Op.13 – Etude VI. (Variation V.).flac
DR11 -0.46 dB -14.32 dB D06 Schumann – Etudes Symphoniques, Op.13 – Etude VII. (Variation VI.).flac
DR15 -0.35 dB -18.64 dB D07 Schumann – Etudes Symphoniques, Op.13 – Etude VIII. (Variation VII.).flac
DR11 -1.59 dB -18.06 dB D08 Schumann – Etudes Symphoniques, Op.13 – Etude IX.flac
DR13 -1.30 dB -17.15 dB D09 Schumann – Etudes Symphoniques, Op.13 – Etude X. (Variation VIII.).flac
DR14 -3.22 dB -24.73 dB D10 Schumann – Etudes Symphoniques, Op.13 – Etude XI. (Variation IX.).flac
DR12 -0.47 dB -15.44 dB D11 Schumann – Etudes Symphoniques, Op.13 – Etude XII. (Finale.).flac
DR18 -2.23 dB -26.81 dB E1 Rachmaninov – Prelude For Piano Op. 23 – No.1 F-Sharp-Minor, Largo.flac
DR11 -0.22 dB -15.00 dB E2 Rachmaninov – Prelude For Piano Op. 23 – No.2 B-Flat-Major, Maestoso.flac
DR16 -2.77 dB -25.35 dB E3 Rachmaninov – Prelude For Piano Op. 23 – No.4 D-Major, Andante Cantabile.flac
DR11 -0.20 dB -16.98 dB E4 Rachmaninov – Prelude For Piano Op. 23 – No.5 G-Minor, Alla Marcia.flac
DR12 -1.47 dB -18.50 dB E5 Rachmaninov – Prelude For Piano Op. 23 – No.7 C-Minor, Allegro.flac
DR14 -3.87 dB -28.22 dB E6 Rachmaninov – Prelude For Piano Op. 23 – No.8 A-Flat-Major, Allegro Vivace.flac
DR11 -0.66 dB -16.62 dB F1 Rachmaninov – Prelude For Piano Op. 32 – No.1 C-Major, Allegro Vivace.flac
DR15 -3.06 dB -25.50 dB F2 Rachmaninov – Prelude For Piano Op. 32 – No.2 B-Flat-Minor, Allegretto.flac
DR10 -0.30 dB -15.65 dB F3 Rachmaninov – Prelude For Piano Op. 32 – No.6 F-Minor, Allegro Appassionato.flac
DR18 -3.49 dB -29.83 dB F4 Rachmaninov – Prelude For Piano Op. 32 – No.7 F-Major, Moderato.flac
DR13 -1.18 dB -20.71 dB F5 Rachmaninov – Prelude For Piano Op. 32 – No.9 A-Major, Allegro Moderato.flac
DR12 -0.89 dB -20.24 dB F6 Rachmaninov – Prelude For Piano Op. 32 – No.10 B-Minor, Lento.flac
DR15 -0.87 dB -22.41 dB F7 Rachmaninov – Prelude For Piano Op. 32 – No.12 G-Sharp-Minor, Allegro.flac
———————————————————————————————-

Number of Files: 50
Official DR Value: DR13

==============================================================================================

Ripping Info

Monitoring

  • Software: iZotope RX 5 Advanced, Adobe Audition CS 5.5, Twisted Wave 1.18
  • Very careful de-clicking with iZotope, significant clicks manually removed, never de-noising
  • DR-Analisys
  • Wave 32/192(32/384) —> Flac 24/96(24/192): Twisted Wave 1.18
  • Artwork: Sony Alpha 350, Epson Perfection V750 Pro, Photoshop CS 5.5

 

 

5 thoughts on “HD-Vinyls 24/96 (Melodya) Sviatoslav Richter Plays Schumann, Brahms, Beethoven, Rachmaninov”

Leave a Reply