HD-Vinyls 24/96 (Philips) Volume 5 – EDIZIONE VIVALDI by Philips on 49 LPs

front_small_boxset05
Box 05 with 5 LPs
This is a project I wanted to realize for my life and I started to buy the box-sets from all over the world. It took me around 3 years, because I wanted only Mint or NearMint box-sets. So 3 of them are Mint and never played, all the other are NM. The whole collection costed me almost 600 EUR…if you feel, you want to contribute to this Herakles-work, so you are welcome. Click on the donation button, at the end of this post.

# Composer: Antonio Vivaldi
# Performer: many artists
# Orchestra: I Musici
# Vinyl 1959-1978
# Number of Discs: 5/49
# Format: Flac
# Label: Philips
# DR-Analysis: DR 12
#
Size: 4.73 GB
# Scan: yes
# Server: Fi
leFactory

I MUSICI, SALVATORE ACCARDO, FRANCO GULLI, JEAN CLAUDE VEILHAN, MAURICE GENDRON, BRUNO CANINO, BLANDINE VERLET, ROHAN DE SARAM, FELIX AYO, ROBERTO MICHELUCCI, PINA CARMIRELLI, HEINZ HOLLIGER, SEVERINO GAZZELONI, BRUNO GIURANNA, CHRISTINE WALEVSKA, VITTORIO NEGRI, KURT REDEL, KLAUS THUNEMANN, ELLY AMELING, AGNES GIEBEL, JULIA HAMARI, BIRGIT FINNILÄ, VITTORIO NEGRI

 

———————————————————————————————-
Analyzed folder: /96k Vivaldi Edizione Philips (49 LPs)/Volume05 (5LPs)
———————————————————————————————-
DR        Peak        RMS        Filename
———————————————————————————————-
DR12        -2.16 dB     -17.93 dB     Box 05 LP1 – A1 Concerto No. 1 For Oboe in B-Flat-Major R. 465 – Allegro.wav
DR11        -5.52 dB     -20.71 dB     Box 05 LP1 – A2 Concerto No. 1 For Oboe in B-Flat-Major R. 465 – Adagio.wav
DR13        -1.51 dB     -18.92 dB     Box 05 LP1 – A3 Concerto No. 1 For Oboe in B-Flat-Major R. 465 – Allegro.wav
DR13        -1.30 dB     -18.32 dB     Box 05 LP1 – A4 Concerto No. 2 For Violin in C-Major R. 188 – Allegro.wav
DR13        -8.88 dB     -25.94 dB     Box 05 LP1 – A5 Concerto No. 2 For Violin in C-Major R. 188 – Largo.wav
DR12        -1.49 dB     -18.30 dB     Box 05 LP1 – A6 Concerto No. 2 For Violin in C-Major R. 188 – Allegro.wav
DR12        -1.44 dB     -17.97 dB     Box 05 LP1 – A7 Concerto No. 3 For Violin in G-Minor R. 326 – Allegro.wav
DR12        -6.51 dB     -23.44 dB     Box 05 LP1 – A8 Concerto No. 3 For Violin in G-Minor R. 326 – Grave.wav
DR11        -5.17 dB     -20.36 dB     Box 05 LP1 – A9 Concerto No. 3 For Violin in G-Minor R. 326 – Presto.wav
DR12        -1.29 dB     -17.47 dB     Box 05 LP1 – B1 Concerto No. 4 For Violin in A-Minor R. 354 – Allegro.wav
DR11        -8.63 dB     -24.74 dB     Box 05 LP1 – B2 Concerto No. 4 For Violin in A-Minor R. 354 – Adagio.wav
DR13        -0.56 dB     -17.66 dB     Box 05 LP1 – B3 Concerto No. 4 For Violin in A-Minor R. 354 – Allegro.wav
DR13        -1.16 dB     -17.93 dB     Box 05 LP1 – B4 Concerto No. 5 For Violin in F-Major R. 285a – Allegro.wav
DR11        -7.98 dB     -23.59 dB     Box 05 LP1 – B5 Concerto No. 5 For Violin in F-Major R. 285a – Grave-Adagio.wav
DR13        -2.18 dB     -18.84 dB     Box 05 LP1 – B6 Concerto No. 5 For Violin in F-Major R. 285a – Allegro.wav
DR13        -1.26 dB     -18.26 dB     Box 05 LP1 – B7 Concerto No. 6 For Violin in B-Major R. 374 – Allegro.wav
DR12        -4.19 dB     -24.20 dB     Box 05 LP1 – B8 Concerto No. 6 For Violin in B-Major R. 374 – Largo.wav
DR13        -2.91 dB     -19.53 dB     Box 05 LP1 – B9 Concerto No. 6 For Violin in B-Major R. 374 – Allegro.wav
DR13        -2.07 dB     -18.27 dB     Box 05 LP2 – A1 Concerto No. 7 For Oboe in B-Flat-Major R. 464 – Allegro.wav
DR11        -8.72 dB     -23.43 dB     Box 05 LP2 – A2 Concerto No. 7 For Oboe in B-Flat-Major R. 464 – Largo.wav
DR12        -1.47 dB     -16.79 dB     Box 05 LP2 – A3 Concerto No. 7 For Oboe in B-Flat-Major R. 464 – Allegro.wav
DR13        -1.50 dB     -19.00 dB     Box 05 LP2 – A4 Concerto No. 8 For Violine in G-Major R. 299 – Allegro Assai.wav
DR14        -10.25 dB     -28.21 dB     Box 05 LP2 – A5 Concerto No. 8 For Violine in G-Major R. 299 – Largo, Cantabile.wav
DR13        -1.71 dB     -17.89 dB     Box 05 LP2 – A6 Concerto No. 8 For Violine in G-Major R. 299 – Allegro.wav
DR13        -1.12 dB     -17.66 dB     Box 05 LP2 – A7 Concerto No. 9 For Violine in B-Flat-Major R. 373 – Allegro.wav
DR12        -6.50 dB     -24.20 dB     Box 05 LP2 – A8 Concerto No. 9 For Violine in B-Flat-Major R. 373 – Grave.wav
DR13        -0.78 dB     -17.37 dB     Box 05 LP2 – A9 Concerto No. 9 For Violine in B-Flat-Major R. 373 – Alla Breve.wav
DR14        -3.97 dB     -21.07 dB     Box 05 LP2 – B1 Concerto No. 10 For Violine in F-Major R. 294a – Allegro.wav
DR12        -7.79 dB     -25.87 dB     Box 05 LP2 – B2 Concerto No. 10 For Violine in F-Major R. 294a – Adagio.wav
DR14        -2.17 dB     -19.49 dB     Box 05 LP2 – B3 Concerto No. 10 For Violine in F-Major R. 294a – Allegro.wav
DR13        -2.04 dB     -19.02 dB     Box 05 LP2 – B4 Concerto No. 11 For Violine in D-Major R. 208a – Allegro.wav
DR13        -11.23 dB     -29.45 dB     Box 05 LP2 – B5 Concerto No. 11 For Violine in D-Major R. 208a – Grave.wav
DR12        -2.38 dB     -19.73 dB     Box 05 LP2 – B6 Concerto No. 11 For Violine in D-Major R. 208a – Allegro.wav
DR12        -1.06 dB     -17.51 dB     Box 05 LP2 – B7 Concerto No. 12 For Violine in D-Major R. 214 – Allegro.wav
DR12        -6.74 dB     -24.65 dB     Box 05 LP2 – B8 Concerto No. 12 For Violine in D-Major R. 214 – Grave Assai.wav
DR13        -2.81 dB     -19.18 dB     Box 05 LP2 – B9 Concerto No. 12 For Violine in D-Major R. 214 – Allegro.wav
DR11        -3.40 dB     -19.50 dB     Box 05 LP3 – A1 ‘Il Cimento Dell’Armonia E Dell’Invenzione – Le Quattro Stagioni’ Concerto No. 1 ‘La Primavera’ in E-Major R. 269 – Allegro.wav
DR12        -11.13 dB     -28.89 dB     Box 05 LP3 – A2 ‘Il Cimento Dell’Armonia E Dell’Invenzione – Le Quattro Stagioni’ Concerto No. 1 ‘La Primavera’ in E-Major R. 269 – Largo.wav
DR11        -3.30 dB     -19.07 dB     Box 05 LP3 – A3 ‘Il Cimento Dell’Armonia E Dell’Invenzione – Le Quattro Stagioni’ Concerto No. 1 ‘La Primavera’ in E-Major R. 269 – Allegro.wav
DR13        -1.24 dB     -20.42 dB     Box 05 LP3 – A4 ‘Il Cimento Dell’Armonia E Dell’Invenzione – Le Quattro Stagioni’ Concerto No. 2 ‘L’Estate’ in G-Minor R. 315 – Allegro Non Molto.wav
DR14        -3.71 dB     -24.91 dB     Box 05 LP3 – A5 ‘Il Cimento Dell’Armonia E Dell’Invenzione – Le Quattro Stagioni’ Concerto No. 2 ‘L’Estate’ in G-Minor R. 315 – Allegro.wav
DR11        -0.70 dB     -15.54 dB     Box 05 LP3 – A6 ‘Il Cimento Dell’Armonia E Dell’Invenzione – Le Quattro Stagioni’ Concerto No. 2 ‘L’Estate’ in G-Minor R. 315 – Adagio, Presto, Adagio, Presto.wav
DR12        -3.04 dB     -20.26 dB     Box 05 LP3 – B1 ‘Il Cimento Dell’Armonia E Dell’Invenzione – Le Quattro Stagioni’ Concerto No. 3 ‘L’Autunno’ in F-Major R. 293 – Allegro.wav
DR8        -14.96 dB     -28.10 dB     Box 05 LP3 – B2 ‘Il Cimento Dell’Armonia E Dell’Invenzione – Le Quattro Stagioni’ Concerto No. 3 ‘L’Autunno’ in F-Major R. 293 – Adagio Molto.wav
DR12        -3.18 dB     -19.21 dB     Box 05 LP3 – B3 ‘Il Cimento Dell’Armonia E Dell’Invenzione – Le Quattro Stagioni’ Concerto No. 3 ‘L’Autunno’ in F-Major R. 293 – Allegro.wav
DR11        -0.40 dB     -18.11 dB     Box 05 LP3 – B4 ‘Il Cimento Dell’Armonia E Dell’Invenzione – Le Quattro Stagioni’ Concerto No. 4 ‘L’Inverno’ in F-Minor R. 297 – Allegro Non Molto.wav
DR11        -8.88 dB     -23.15 dB     Box 05 LP3 – B5 ‘Il Cimento Dell’Armonia E Dell’Invenzione – Le Quattro Stagioni’ Concerto No. 4 ‘L’Inverno’ in F-Minor R. 297 – Largo.wav
DR12        -1.20 dB     -18.64 dB     Box 05 LP3 – B6 ‘Il Cimento Dell’Armonia E Dell’Invenzione – Le Quattro Stagioni’ Concerto No. 4 ‘L’Inverno’ in F-Minor R. 297 – Allegro.wav
DR11        -0.72 dB     -15.36 dB     Box 05 LP4 – A1 ‘Il Cimento Dell’Armonia E Dell’Invenzione’ Concerto No. 5 ‘La Tempesta Di Mare’ in E-Flat-Major R. 253 – Allegro.wav
DR11        -7.75 dB     -22.84 dB     Box 05 LP4 – A2 ‘Il Cimento Dell’Armonia E Dell’Invenzione’ Concerto No. 5 ‘La Tempesta Di Mare’ in E-Flat-Major R. 253 – Largo.wav
DR12        -0.68 dB     -15.70 dB     Box 05 LP4 – A3 ‘Il Cimento Dell’Armonia E Dell’Invenzione’ Concerto No. 5 ‘La Tempesta Di Mare’ in E-Flat-Major R. 253 – Allegro.wav
DR11        -1.11 dB     -16.14 dB     Box 05 LP4 – A4 ‘Il Cimento Dell’Armonia E Dell’Invenzione’ Concerto No. 6 ‘Il Piacere’ in C-Major R. 180 – Allegro.wav
DR11        -7.10 dB     -23.17 dB     Box 05 LP4 – A5 ‘Il Cimento Dell’Armonia E Dell’Invenzione’ Concerto No. 6 ‘Il Piacere’ in C-Major R. 180 – Largo.wav
DR12        -1.15 dB     -17.30 dB     Box 05 LP4 – A6 ‘Il Cimento Dell’Armonia E Dell’Invenzione’ Concerto No. 6 ‘Il Piacere’ in C-Major R. 180 – Allegro.wav
DR11        -1.69 dB     -16.43 dB     Box 05 LP4 – B1 ‘Il Cimento Dell’Armonia E Dell’Invenzione’ Concerto No. 7 in D-Minor R. 242 – Allegro.wav
DR12        -9.19 dB     -26.16 dB     Box 05 LP4 – B2 ‘Il Cimento Dell’Armonia E Dell’Invenzione’ Concerto No. 7 in D-Minor R. 242 – Largo.wav
DR11        -1.51 dB     -15.35 dB     Box 05 LP4 – B3 ‘Il Cimento Dell’Armonia E Dell’Invenzione’ Concerto No. 7 in D-Minor R. 242 – Allegro.wav
DR11        -0.76 dB     -16.29 dB     Box 05 LP4 – B4 ‘Il Cimento Dell’Armonia E Dell’Invenzione’ Concerto No. 8 in G-Minor R. 332 – Allegro.wav
DR11        -7.53 dB     -23.38 dB     Box 05 LP4 – B5 ‘Il Cimento Dell’Armonia E Dell’Invenzione’ Concerto No. 8 in G-Minor R. 332 – Largo.wav
DR12        -1.22 dB     -17.00 dB     Box 05 LP4 – B6 ‘Il Cimento Dell’Armonia E Dell’Invenzione’ Concerto No. 8 in G-Minor R. 332 – Allegro.wav
DR11        -1.81 dB     -16.53 dB     Box 05 LP5 – A1 ‘Il Cimento Dell’Armonia E Dell’Invenzione’ Concerto No. 9 in D-Minor R. 236 – Allegro.wav
DR10        -9.73 dB     -24.11 dB     Box 05 LP5 – A2 ‘Il Cimento Dell’Armonia E Dell’Invenzione’ Concerto No. 9 in D-Minor R. 236 – Largo.wav
DR12        -0.96 dB     -16.16 dB     Box 05 LP5 – A3 ‘Il Cimento Dell’Armonia E Dell’Invenzione’ Concerto No. 9 in D-Minor R. 236 – Allegro.wav
DR12        -1.07 dB     -16.71 dB     Box 05 LP5 – A4 ‘Il Cimento Dell’Armonia E Dell’Invenzione’ Concerto No. 10 ‘La Caccia’ in B-Flat-Minor R. 362 – Allegro.wav
DR12        -8.80 dB     -25.06 dB     Box 05 LP5 – A5 ‘Il Cimento Dell’Armonia E Dell’Invenzione’ Concerto No. 10 ‘La Caccia’ in B-Flat-Minor R. 362 – Adagio.wav
DR13        -0.64 dB     -17.62 dB     Box 05 LP5 – A6 ‘Il Cimento Dell’Armonia E Dell’Invenzione’ Concerto No. 10 ‘La Caccia’ in B-Flat-Minor R. 362 – Allegro.wav
DR12        -0.75 dB     -17.55 dB     Box 05 LP5 – B1 ‘Il Cimento Dell’Armonia E Dell’Invenzione’ Concerto No. 11 in D-Major R. 210 – Allegro.wav
DR11        -9.85 dB     -26.30 dB     Box 05 LP5 – B2 ‘Il Cimento Dell’Armonia E Dell’Invenzione’ Concerto No. 11 in D-Major R. 210 – Largo.wav
DR12        -1.44 dB     -16.85 dB     Box 05 LP5 – B3 ‘Il Cimento Dell’Armonia E Dell’Invenzione’ Concerto No. 11 in D-Major R. 210 – Allegro.wav
DR12        -1.89 dB     -17.31 dB     Box 05 LP5 – B4 ‘Il Cimento Dell’Armonia E Dell’Invenzione’ Concerto No. 12 in C-Major R. 178 – Allegro.wav
DR12        -9.47 dB     -26.03 dB     Box 05 LP5 – B5 ‘Il Cimento Dell’Armonia E Dell’Invenzione’ Concerto No. 12 in C-Major R. 178 – Largo.wav
DR12        -1.80 dB     -16.78 dB     Box 05 LP5 – B6 ‘Il Cimento Dell’Armonia E Dell’Invenzione’ Concerto No. 12 in C-Major R. 178 – Allegro.wav
———————————————————————————————-
Number of files:    72
Official DR value:    DR12
==============================================================================================

Ripping Infos

Monitoring

If You hear some clicks and pops here and there, Who cares?
Id rather have a few light anomalies instead of destroying the music.
Enjoy the music, not the ticks & pops.
I tend more and more, in the last time, to de-click with an automatic setting between 0.7 and 1.2 so you can say, my rips are like half rough rips.

  • Software: iZotope RX 4 Advanced, Adobe Audition CS 5.5, Twisted Wave 1.9
  • Very light de-clicking with iZotope, significant clicks manually removing, no de-noising
  • DR-Analisys before converting to Flac
  • Converting Wave -> Flac: Twisted Wave 1.9
  • Artwork: Sony Alpha 350, Epson Perfection V750 Pro, Photoshop CS 5.5

DONATION !
If you like what i do, please consider that a little donation would be very appreciate.
I reinvest all donations in maintenance of my rig, for purchasing cleaning solutions and, most important of all, purchasing of new vinyls.

Click on the “Donate”-button. Thank you very much !

Download from FileFactory
Artwork – 1 archive

Volume 1: 10 archives
Volume 2: 7 archives
Volume 3: 12 archives
Volume 4: 9 archives

Volume 5: 10 archives

Total: 49 archives
PW: LaWally

31 thoughts on “HD-Vinyls 24/96 (Philips) Volume 5 – EDIZIONE VIVALDI by Philips on 49 LPs”

  1. So – my assumption was wrong that you are on temporary hiatus and would be working on this project sometimes later. Great.

    Thanks a lot for this gargantuan undertaking. Very much appreciated. I’ll contribute to some beer or wine for your pleasure.

    1. oh…I had already ripped 2 records before the hiatus…and I completed it by ripping the other three records during 1 week.
      Normally I make a 5-records-rip in 1 day 😉

    1. for some technical reasons, it happens that I don’t have the old archives anymore. I made new archives some months ago that I wanted to load in change of the old ones. They are now loading. You have to DL again the whole volume05.

Leave a Reply