HD-Vinyls 24/96 (Philips) Volume 7 – EDIZIONE VIVALDI by Philips on 49 LPs

front_small_boxset07
Box 07with 4 LPs
This is a project I wanted to realize for my life and I started to buy the box-sets from all over the world. It took me around 3 years, because I wanted only Mint or NearMint box-sets. So 3 of them are Mint and never played, all the other are NM. The whole collection costed me almost 600 EUR…if you feel, you want to contribute to this Herakles-work, so you are welcome.
Click on the donation button, at the end of this post.

# Composer: Antonio Vivaldi
# Performer: many artists
# Orchestra: I Musici
# Vinyl 1959-1978
# Number of Discs: 4/49
# Format: Flac
# Label: Philips
# DR-Analysis: DR 14
#
Size: 3.81 GB
# Scan: yes
# Server: Fi
leFactory

I MUSICI, SALVATORE ACCARDO, FRANCO GULLI, JEAN CLAUDE VEILHAN, MAURICE GENDRON, BRUNO CANINO, BLANDINE VERLET, ROHAN DE SARAM, FELIX AYO, ROBERTO MICHELUCCI, PINA CARMIRELLI, HEINZ HOLLIGER, SEVERINO GAZZELONI, BRUNO GIURANNA, CHRISTINE WALEVSKA, VITTORIO NEGRI, KURT REDEL, KLAUS THUNEMANN, ELLY AMELING, AGNES GIEBEL, JULIA HAMARI, BIRGIT FINNILÄ, VITTORIO NEGRI

 

———————————————————————————————-
Analyzed folder: /Volume07 (4LPs) 1971-76
———————————————————————————————-
DR        Peak        RMS        Filename
———————————————————————————————-
DR15        -0.30 dB     -20.75 dB     Box07 LP1 – A1 Concerto For Viola D’Amore, Strings And Continuo A-Major R.396.wav
DR14        -0.31 dB     -19.47 dB     Box07 LP1 – A2 Concerto For Viola D’Amore, Strings And Continuo D-Minor R.395.wav
DR15        -0.27 dB     -19.75 dB     Box07 LP1 – B1 Concerto For Viola D’Amore, Strings And Continuo D-Minor R.394.wav
DR14        -0.53 dB     -19.16 dB     Box07 LP1 – B2 Concerto For Viola D’Amore, Strings And Continuo A-Minor R.397.wav
DR14        -0.35 dB     -19.57 dB     Box07 LP2 – A1 Concerto For Viola D’Amore, Strings And Continuo D-Major R.392.wav
DR14        -0.34 dB     -20.08 dB     Box07 LP2 – A2 Concerto For Viola D’Amore, Lute and Strings D-Minor R.540.wav
DR12        -0.15 dB     -17.75 dB     Box07 LP2 – B1 Concerto For Viola D’Amore, 2 Oboes, Bassoon, 2 Horns And Continuo F-Major R.97.wav
DR14        -0.56 dB     -19.58 dB     Box07 LP2 – B2 Concerto For Viola D’Amore, Strings And Continuo D-Major R.393.wav
DR13        -0.41 dB     -19.23 dB     Box07 LP3 – A1 Concerto Con Molti Stromenti G-Minor R.577 ‘Per L’Orchestra Di Dresda’.wav
DR14        -0.59 dB     -19.46 dB     Box07 LP3 – A2 Concerto Con Molti Stromenti C-Major R.556 ‘Per La Solennita’ Di San Lorenzo’.wav
DR14        -0.41 dB     -19.66 dB     Box07 LP3 – B1 Concerto Con Molti Stromenti G-Minor R.576 ‘Per S.A.R. Di Sassonia’.wav
DR14        -0.04 dB     -18.72 dB     Box07 LP3 – B2 Concerto Con Molti Stromenti C-Major R.558.wav
DR13        -0.30 dB     -17.49 dB     Box07 LP4 – A1 Concerto For Cello, Strings and Continuo G-Major R.414.wav
DR13        -0.48 dB     -17.40 dB     Box07 LP4 – A2 Concerto For Cello, Strings and Continuo A-Minor R.418.wav
DR13        -0.38 dB     -17.51 dB     Box07 LP4 – B1 Concerto For Cello, Strings and Continuo G-Minor R.417.wav
DR12        -0.13 dB     -16.39 dB     Box07 LP4 – B2 Concerto For Cello, Strings and Continuo A-Minor R.420.wav
———————————————————————————————-
Number of files:    16
Official DR value:    DR14
==============================================================================================

Ripping Infos

Monitoring

If You hear some clicks and pops here and there, Who cares?
Id rather have a few light anomalies instead of destroying the music.
Enjoy the music, not the ticks & pops.
I tend more and more, in the last time, to de-click with an automatic setting between 0.7 and 1.2 so you can say, my rips are like half rough rips.

  • Software: iZotope RX 4 Advanced, Adobe Audition CS 5.5, Twisted Wave 1.9
  • Very light de-clicking with iZotope, significant clicks manually removing, no de-noising
  • DR-Analisys before converting to Flac
  • Converting Wave -> Flac: Twisted Wave 1.9
  • Artwork: Sony Alpha 350, Epson Perfection V750 Pro, Photoshop CS 5.5

DONATION !
If you like what i do, please consider that a little donation would be very appreciate.
I reinvest all donations in maintenance of my rig, for purchasing cleaning solutions and, most important of all, purchasing of new vinyls.

Click on the “Donate”-button. Thank you very much !

Download from FileFactory
Artwork – 1 archive

Volume 1: 10 archives
Volume 2: 7 archives
Volume 3: 12 archives
Volume 4: 9 archives

Volume 5: 12 archives
Volume 6: 10 archives

Volume 7: 8 archives
Total: 69 archives

PW: LaWally

30 thoughts on “HD-Vinyls 24/96 (Philips) Volume 7 – EDIZIONE VIVALDI by Philips on 49 LPs”

  1. Confus-al-dy-bub or not, once downloaded this is just flat gorgeous.

    Thank you for the tranquility and inspiration this music provides. It quiets the nerves:
    gratefully yours,
    Bob

  2. I know it’s alot to ask, and you would take no requests, but is there any chance that you have Kogan plays Brahms in 96k/ 192k ? Any recording of him playing the Brahms by EMI is just great. I’m really dying for that, been obsessed for the past few months….

    1. You won’t ever hear Kogan in 96k or 192k. Nothing he recorded was taped with those specs. The source makes the difference, not the livery of it. I agree with you on Kogan’s excellence. I prefer his recordings of standard concertos in many cases.

    1. Не переиздавали,
      кроме виолончельных, их японцы издали в юбилейном сете Валевской.

Leave a Reply