HD-Vinyls 24/96 (Philips) Volume 9 – EDIZIONE VIVALDI by Philips on 49 LPs

front_small_boxset09Box 09 with 5 LPs
This is a project I wanted to realize for my life and I started to buy the box-sets from all over the world. It took me around 3 years, because I wanted only Mint or NearMint box-sets. So 3 of them are Mint and never played, all the other are NM. The whole collection costed me almost 600 EUR…if you feel, you want to contribute to this Herakles-work, so you are welcome.
Click on the donation button, at the end of this post.

# Composer: Antonio Vivaldi
# Performer: many artists
# Orchestra: I Musici
# Vinyl 1959-1978
# Number of Discs: 5/49
# Format: Flac
# Label: Philips
# DR-Analysis: DR 13
#
Size: 4.85 GB
# Scan: yes
# Server: Fi
leFactory

I MUSICI, SALVATORE ACCARDO, FRANCO GULLI, JEAN CLAUDE VEILHAN, MAURICE GENDRON, BRUNO CANINO, BLANDINE VERLET, ROHAN DE SARAM, FELIX AYO, ROBERTO MICHELUCCI, PINA CARMIRELLI, HEINZ HOLLIGER, SEVERINO GAZZELONI, BRUNO GIURANNA, CHRISTINE WALEVSKA, VITTORIO NEGRI, KURT REDEL, KLAUS THUNEMANN, ELLY AMELING, AGNES GIEBEL, JULIA HAMARI, BIRGIT FINNILÄ, VITTORIO NEGRI

Please, rename the following track(s)

Box 09 LP1 – A3 Concerto For Flute, Strings and Continuo A-Minor RV 427 (1, Allegro Non Troppo).wav
into
Box 09 LP1 – A3 Concerto For Flute, Strings and Continuo A-Minor RV 440 (1, Allegro Non Troppo).wav

Box 09 LP1 – B1 Concerto For Flute, Strings and Continuo A-Minor RV 427 (2, Larghetto – 3, Allegro).wav
into
Box 09 LP1 – B1 Concerto For Flute, Strings and Continuo A-Minor RV 440 (2, Larghetto – 3, Allegro).wav

———————————————————————————————-
Analyzed folder: /Volume09 (5LPs) 1974-77
———————————————————————————————-
DR        Peak        RMS        Filename
———————————————————————————————-
DR13        -0.34 dB     -19.23 dB     Box 09 LP1 – A1 Concerto For Flute, Strings and Continuo G-Major RV 436.wav
DR14        -0.72 dB     -19.59 dB     Box 09 LP1 – A2 Concerto For Flute, Strings and Continuo D-Major RV 427.wav
DR13        -0.65 dB     -18.60 dB     Box 09 LP1 – A3 Concerto For Flute, Strings and Continuo A-Minor RV 427 (1, Allegro Non Troppo).wav
DR14        -1.50 dB     -21.44 dB     Box 09 LP1 – B1 Concerto For Flute, Strings and Continuo A-Minor RV 427 (2, Larghetto – 3, Allegro).wav
DR14        -0.70 dB     -19.90 dB     Box 09 LP1 – B2 Concerto For Flute, Bassoon, Strings and Continuo ‘La Notte’ G-Minor Op. 10,2 RV 439.wav
DR13        -0.70 dB     -18.55 dB     Box 09 LP1 – B3 Concerto For Flute, Strings and Continuo D-Major RV 429.wav
DR13        -1.44 dB     -18.31 dB     Box 09 LP2 – A1 Concerto For Flute, Strings and Continuo C-Minor RV 441.wav
DR14        -1.25 dB     -20.73 dB     Box 09 LP2 – A2 Concerto For Flute, Strings and Continuo G-Major RV 438.wav
DR13        -0.77 dB     -18.23 dB     Box 09 LP2 – B1 Concerto For Flute, Oboe, Bassoon, Strings and Continuo F-Major RV 433.wav
DR15        -3.30 dB     -22.03 dB     Box 09 LP2 – B2 Concerto For Flute, Strings and Continuo A-Minor RV 108.wav
DR13        -2.35 dB     -20.23 dB     Box 09 LP2 – B3 Concerto For 2 Flutes, Strings and Continuo C-Major RV 533.wav
DR13        -0.77 dB     -18.65 dB     Box 09 LP3 – A1 Concerto For Oboe, Strings and Continuo A-Minor RV 463.wav
DR14        -0.84 dB     -19.88 dB     Box 09 LP3 – A2 Concerto For Oboe, Strings and Continuo C-Major RV 447.wav
DR14        -1.09 dB     -19.20 dB     Box 09 LP3 – B1 Concerto For Oboe, Strings and Continuo G-Minor RV 460.wav
DR14        -0.41 dB     -18.37 dB     Box 09 LP3 – B2 Concerto For Oboe, Strings and Continuo C-Major RV 450.wav
DR14        -0.48 dB     -18.92 dB     Box 09 LP4 – A1 Concerto For Oboe, Strings and Continuo C-Major RV 451.wav
DR13        -1.69 dB     -19.04 dB     Box 09 LP4 – A2 Concerto For Oboe, Strings and Continuo F-Major RV 457.wav
DR13        -2.01 dB     -18.65 dB     Box 09 LP4 – A3 Concerto For Oboe, Strings and Continuo A-Minor RV 461 (Mov 1).wav
DR13        -0.93 dB     -18.75 dB     Box 09 LP4 – B1 Concerto For Oboe, Strings and Continuo A-Minor RV 461 (Mov 2+3).wav
DR14        -1.14 dB     -19.79 dB     Box 09 LP4 – B2 Concerto For Oboe, Strings and Continuo D-Major RV 453.wav
DR13        -1.58 dB     -18.79 dB     Box 09 LP4 – B3 Concerto For Oboe, Strings and Continuo F-Major RV 455.wav
DR13        -0.18 dB     -17.92 dB     Box 09 LP5 – A1 Concerto For Bassoon, Strings and Continuo E-Minor RV 484.wav
DR14        -0.98 dB     -19.97 dB     Box 09 LP5 – A2 Concerto For Bassoon, Strings and Continuo A-Minor RV 498.wav
DR13        -0.70 dB     -18.73 dB     Box 09 LP5 – B1 Concerto For Bassoon, Strings and Continuo F-Major RV 489.wav
DR13        -0.61 dB     -18.33 dB     Box 09 LP5 – B2 Concerto For Bassoon, Strings and Continuo B-Major RV 502.wav
———————————————————————————————-
Number of files:    25
Official DR value:    DR13
==============================================================================================

 

Ripping Info

Monitoring

 

If You hear some clicks and pops here and there, Who cares?
Id rather have a few light anomalies instead of destroying the music.
Enjoy the music, not the ticks & pops.
I tend more and more, in the last time, to de-click with an automatic setting between 0.7 and 1.2 so you can say, my rips are like half rough rips.

  • Software: iZotope RX 4 Advanced, Adobe Audition CS 5.5, Twisted Wave 1.9
  • Very light de-clicking with iZotope, significant clicks manually removing, no de-noising
  • DR-Analisys before converting to Flac
  • Converting Wave -> Flac: Twisted Wave 1.9
  • Artwork: Sony Alpha 350, Epson Perfection V750 Pro, Photoshop CS 5.5

DONATION !
If you like what i do, please consider that a little donation would be very appreciate.
I reinvest all donations in maintenance of my rig, for purchasing cleaning solutions and, most important of all, purchasing of new vinyls.

Click on the “Donate”-button. Thank you very much !

Download from FileFactory
Artwork – 1 archive

Volume 1: 10 archives
Volume 2: 7 archives
Volume 3: 12 archives
Volume 4: 9 archives

Volume 5: 12 archives
Volume 6: 10 archives
Volume 7: 8 archives
Volume 8: 12 archives

Volume 9: 10 archives

Total: 91 archives

PW: LaWally

Leave a comment ?

15 Comments.

  1. Beautiful – thanks

  2. Rock, you are our god!

    Danke / Grazie mille / Muchas gracias / Thank you very much/…

  3. Thank you so much!!!

  4. Thank you – a fine series 🙂

  5. Thank you very much for this another Box from Philip’s Vivaldi.

  6. godIsInTheRadio

    Ahh – delightful. I knew this was coming someday. What a hard guess 🙂

    (btw. will you be also completing the 200 years Beethoven someday? Is there need for support with that?)

    Thanks a lot Mr. R-Alf…

  7. Thank you very much

  8. Thank you for continuing this fine series.

    dn

  9. As per your excellent work, this is a beautiful album of beautiful sound. God job, Alf.
    Bob

  10. GO!
    GO!
    GO
    the end is near!!!!

    marvelous job!!!!!

  11. Tracks 3 & 4 Flute Concerto in A minor = RV 440 ???

  12. The end is NIGH! Play on — thank you.

Leave a Comment