HD-Vinyls 24/96 (Philips) Wolfgang Amadeus Mozart – Piano Concertos KV 466 & KV 491 (Haskil/Markevitch)

front-small-boxsetMany thanks to Jean-Luc for this gem
This is a virtually perfect recording that’s amazing. Haskil and Markevitch combine just the right amount of fire, brio and elegance that makes these minor key Mozart concerti so special. Perhaps here and there, they could have amped the passion and tempo up just a notch. But it’s still great, and an especial treat to hear the woefully underrated Lamoureux in a wonderfully recorded ambience. Bravo to the recording engineers.

Composer: Wolfgang Amadeus Mozart
Performer: Clara Haskil
Orchestra: Orchestre Des Concerts Lamoureux
Conductor: Igor Markevitch
Vinyl (1960)
Number of Discs: 1
Format: Flac
Label: Philips
DR-Analysis: DR 12
Size: 1,19 GB
Scan: yes
Server: FileFactory



  Klavierkonzert D-Moll KV 466
A1 Allegro 13:27
A2 Romance 9:30
A3 Rondo (Allegro Assai) 7:03
  Klavierkonzert C-Moll KV 491
B1 (Allegro) 13:10
B2 Larghetto 7:12
B3 (Allegretto) 8:56

Analyzed folder: /96k WAM – Piano Concertos KV 466, KV 491 – Haskil
DR        Peak        RMS        Filename
DR13        -0.61 dB     -18.19 dB     A1 Klavierkonzert D-Moll KV 466 – Allegro.aif
DR11        -2.91 dB     -19.99 dB     A2 Klavierkonzert D-Moll KV 466 – Romance.aif
DR12        -0.73 dB     -18.09 dB     A3 Klavierkonzert D-Moll KV 466 – Rondo (Allegro Assai).aif
DR12        -0.56 dB     -16.98 dB     B1 Klavierkonzert C-Moll KV 491- (Allegro).aif
DR12        -5.40 dB     -21.96 dB     B2 Klavierkonzert C-Moll KV 491- Larghetto.aif
DR13        -0.46 dB     -18.14 dB     B3 Klavierkonzert C-Moll KV 491- (Allegretto).aif
Number of files:    6
Official DR value:    DR12


Ripping Info


  • Software: iZotope RX 4 Advanced, Adobe Audition CS 5.5, Twisted Wave 1.9
  • Super light de-clicking with iZotope, significant clicks manually removing, no de-noising
  • DR-Analisys before converting to Flac
  • Converting Wave -> Flac: Twisted Wave 1.9
  • Artwork: Sony Alpha 350, Epson Perfection V750 Pro, Photoshop CS 5.5

If you like what i do, please consider that a little donation would be very appreciate.
I reinvest all donations in maintenance of my rig, for purchasing cleaning solutions and, most important of all, purchasing of new vinyls.
Click on the “Donate”-button.

Thank you very much !

Download from FileFactory
3 archives
PW: LaWally


21 thoughts on “HD-Vinyls 24/96 (Philips) Wolfgang Amadeus Mozart – Piano Concertos KV 466 & KV 491 (Haskil/Markevitch)

  1. Hello, dear Rach!
    You are still ripping super legendary recordings.
    Recently it was Grumiaux with Mozart, and now Haskill.
    Thanks so much!

  2. My opinion is that this recording is the best ever produced for those Mozart’s concertos. Not only Haskil and Markevitch are masters, but also the orchestra is here just amazing. Thank You very much.

  3. The recording quality here is outstanding, given the vintage. As always, the rip quality is first rate 🙂
    Haskil can sometimes sound a little ‘heavy-handed’ in the latter part of her career, but the playing here is nevertheless thoughtful and the orchestra plays superbly.
    Thanks Alf and Jean-Luc 😀

Leave a Reply