HD-Vinyls 24/96 (EMI) Joaquin Rodrigo – Concierto En Modo Galante, Concierto De Estio

front-small-boxsetAll thanks for this very rarity go to Mats
If anyone is under the illusion that Rodrigo composed only for the guitar, then here’s an immediate corrective: a cello concerto and a violin concerto, each as fine as their more famous sibling (In fact Rodrigo wasn’t even a guitarist- but sssh, don’t tell anyone!!). The Concierto de estio, for Violin and Orchestra is the older piece on this record, having been written in 1943. It wears its debt to the past lightly- there are occasional hints at a Vivaldian model, but the Spanish flavour is all Rodrigo’s own. Like the cello concerto, Rodrigo’s orchestral writing is crystalline and uncluttered. Mikhail Ovrutsky clearly relishes the filigree solo part. The Concierto in Modo Galante inhabits the same sort of sound world as the better known Fantasia Para un Gentilhombre: 18th century gentility, formal dances and etiquette. The cello can sing clearly above the economical orchestration.

Composer: Joaquin Rodrigo
Performer: Agustin Leon Ara, Robert Cohen
Orchestra London Symphony Orchestra
Enrique Batiz
Vinyl (1982)
Number of Discs: 1
Format: Flac
Label: EMI
DR-Analysis: DR 16
Size: 906 MB
Scan: yes
Server: FileFactory



A1 Concierto En Modo Galante-Allegro Gracioso 10:26
A2 Concierto En Modo Galante-Adagietto 8:56
A3 Concierto En Modo Galante-Rondo Giocoso 6:24
B1 Concierto De Estio-Prelude 7:44
B2 Concierto De Estio-Siclienne 7:56
B3 Concierto De Estio-Rondino 4:56


Analyzed folder: /96k Concierto En Modo Galante, Concierto De Estio
DR        Peak        RMS        Filename
DR18        -2.25 dB     -25.56 dB     A1 Concierto En Modo Galante-Allegro Gracioso.aif
DR15        -8.25 dB     -28.21 dB     A2 Concierto En Modo Galante-Adagietto.aif
DR16        -0.42 dB     -21.44 dB     A3 Concierto En Modo Galante-Rondo Giocoso.aif
DR17        -0.47 dB     -22.70 dB     B1 Concierto De Estio-Prelude.aif
DR14        -2.74 dB     -22.46 dB     B2 Concierto De Estio-Siclienne.aif
DR14        -0.65 dB     -20.02 dB     B3 Concierto De Estio-Rondino.aif
Number of files:    6
Official DR value:    DR16


Ripping Info


If You hear some clicks and pops here and there, Who cares?
Id rather have a few light anomalies instead of destroying the music.
Enjoy the music, not the ticks & pops.
My rips are almost rough rips.

  • Software: iZotope RX 4 Advanced, Adobe Audition CS 5.5, Twisted Wave 1.9
  • Super light de-clicking with iZotope, significant clicks manually removing, no de-noising
  • DR-Analisys before converting to Flac
  • Converting Wave -> Flac: Twisted Wave 1.9
  • Artwork: Sony Alpha 350, Epson Perfection V750 Pro, Photoshop CS 5.5

If you like what i do, please consider that a little donation would be very appreciate.
I reinvest all donations in maintenance of my rig, for purchasing cleaning solutions and, most important of all, purchasing of new vinyls.
Click on the “Donate”-button.

Thank you very much !

Download from FileFactory
2 archives
PW: LaWally


11 thoughts on “HD-Vinyls 24/96 (EMI) Joaquin Rodrigo – Concierto En Modo Galante, Concierto De Estio

Leave a Reply