HD-Vinyls 24/96 (RCA) Mario Lanza – Famous Neapolitan Songs

front-small-boxsetFor Bob from Georgia
The great Mario Lanza at his very best. Sad to think that with in a year of recording this album (Originally titled ‘Mario’) he would be dead.

Composer: many differents
Performer: Mario Lanza
Vinyl (1959?)
Number of Discs: 1
Format: Flac
Label: RCA
DR-Analysis: DR 11
Size: 833 MB
Scan: yes
Server: FileFactory


Analyzed folder: /96k Mario Lanza – Famous Naples Songs
DR        Peak        RMS        Filename
DR12        -1.14 dB     -16.90 dB     A1 Funiculi’ Funicula’.aif
DR11        -1.49 dB     -15.89 dB     A2 Dicitenciello Vuie.aif
DR11        -1.33 dB     -16.03 dB     A3 Maria Mari’.aif
DR12        -1.44 dB     -18.32 dB     A4 Voce ‘E Notte.aif
DR11        -0.35 dB     -15.63 dB     A5 Canta Pe’mme.aif
DR11        -0.57 dB     -15.81 dB     A6 ‘O Surdato ‘Nnamurato.aif
DR11        -0.94 dB     -15.69 dB     B1 Come Facette Mammeta.aif
DR11        -2.20 dB     -17.62 dB     B2 Santa Lucia Luntana.aif
DR12        -2.36 dB     -18.63 dB     B3 Fenesta Ca lucive.aif
DR10        -1.29 dB     -15.64 dB     B4 Tu Ca Nun Chiagne.aif
DR13        -2.28 dB     -19.24 dB     B5 ‘Na Sera E Maggio.aif
DR12        -1.99 dB     -18.22 dB     B6 Passione.aif
Number of files:    12
Official DR value:    DR11


Ripping Info


If You hear some clicks and pops here and there, Who cares?
Id rather have a few light anomalies instead of destroying the music.
Enjoy the music, not the ticks & pops.
My rips are almost rough rips.

  • Software: iZotope RX 4 Advanced, Adobe Audition CS 5.5, Twisted Wave 1.9
  • Super light de-clicking with iZotope, significant clicks manually removing, no de-noising
  • DR-Analisys before converting to Flac
  • Converting Wave -> Flac: Twisted Wave 1.9
  • Artwork: Sony Alpha 350, Epson Perfection V750 Pro, Photoshop CS 5.5

If you like what i do, please consider that a little donation would be very appreciate.
I reinvest all donations in maintenance of my rig, for purchasing cleaning solutions and, most important of all, purchasing of new vinyls.
Click on the “Donate”-button.

Thank you very much !

Download from FileFactory
2 archives
PW: LaWally


9 thoughts on “HD-Vinyls 24/96 (RCA) Mario Lanza – Famous Neapolitan Songs

Leave a Reply