HD-Vinyls 24/96 (Supraphon) Wolfgang Amadeus Mozart – KV 525, KV 136, KV 546 – Czech Chamber Orchestra/Josef Vlach

Many thanks to Tovarnik for this very good WAM

Absolutely wonderful renditions by artists, who don’t need to have a “big” name to be big.

Composer: Wolfgang Amadeus Mozart
Orchestra: Czech Chamber Orchestra
Conductor: Josef Vlach
Vinyl (1962/78)
Number of Discs: 1
Format: Flac
Label: Supraphon
DR-Analysis: DR 14
Size: 833 MB
Scan: yes
Server: FileFactory


Analyzed folder: /96k WAM – Czech Chamber Orchestra – Vlach
DR        Peak        RMS        Filename
DR14        -0.41 dB     -18.75 dB     A Serenade G-Dur K. 525.aif
DR12        -1.02 dB     -17.54 dB     B1 Divertimento D-Dur K. 136.aif
DR13        -0.55 dB     -17.45 dB     B2 Adagio E Fuga C-Moll, K. 546.aif
Number of files:    3
Official DR value:    DR13


Ripping Info


  • Software: iZotope RX 4 Advanced, Adobe Audition CS 5.5, Twisted Wave 1.9
  • Super light de-clicking with iZotope, significant clicks manually removing, no de-noising
  • DR-Analisys before converting to Flac
  • Converting Wave -> Flac: Twisted Wave 1.9
  • Artwork: Sony Alpha 350, Epson Perfection V750 Pro, Photoshop CS 5.5

If you like what i do, please consider that a little donation would be very appreciate.
I reinvest all donations in maintenance of my rig, for purchasing cleaning solutions and, most important of all, purchasing of new vinyls.
Click on the “Donate”-button.

Thank you very much !

Download from FileFactory
2 archives
PW: LaWally

17 thoughts on “HD-Vinyls 24/96 (Supraphon) Wolfgang Amadeus Mozart – KV 525, KV 136, KV 546 – Czech Chamber Orchestra/Josef Vlach

  1. Thank you, from a Mozart lover!

    No date on the sleeve. There may be a date on the label. It is not that I am obsessed with dates, I am just curious about this release.

  2. Thanks to Tovarnik and Rachmaninov! Well played music from the best tradition of Czech school of interpretation. Sound of this record is very, very good and the rendition is, as usual, excellent. Thanks again!

Leave a Reply