HD-Vinyls 24/96 (Turnabout) Franz Schubert – Allegro In A Minor “Lebensstürme” / “Grand Duo” Sonata (Brendel/Crochet)

front-small-boxsetMany thanks to Trottar for this rarity
While we know well Austrian piano legend Alfred Brendel, almost nothing is to found on Internet about the French/American piansit Evelyne Crochet.
Here can you read about her.

# Composer: Franz Schubert
# Performer: Evelyne Crochet,
Alfred Brendel
Vinyl 1973
# Number of Discs: 1
# Format: Flac (Tracks)
# Label: Turnabout

# DR-Analysis: DR 14
Size: 941 MB
# Scan: Yes

# Server: FF


A1 Allegro In A Minor, Opus 144, D.947 “Lebensstürme” For Piano Four Hands 11:04
  Sonata In C Major, Opus 140 (D.812) “Grand Duo”  
A2 Allegro Moderato 10:58
B1 Andante 9:11
B2 Scherzo – Allegro Vivace 5:25
B3 Allegro Vivace 10:31


Analyzed folder: /96k Schubert – Alfred Brendel, Evelyne Crochet
DR        Peak        RMS        Filename
DR14        -0.93 dB     -19.75 dB     A1 Allegro In A-Minor ‘Lebensstuerme’.aif
DR14        -0.57 dB     -19.97 dB     A2 ‘Gran Duo’ Sonata In C-Major – 1, Allegro Moderato.aif
DR16        -1.31 dB     -22.48 dB     B1 ‘Gran Duo’ Sonata In C-Major – 2, Andante.aif
DR13        -0.73 dB     -17.68 dB     B2 ‘Gran Duo’ Sonata In C-Major – 3, Scherzo, Allegro Vivace.aif
DR13        -1.36 dB     -18.77 dB     B3 ‘Gran Duo’ Sonata In C-Major – 4, Allegro Vivace.aif
Number of files:    5
Official DR value:    DR14


Ripping Info


If You hear some clicks and pops here and there, Who cares?
Id rather have a few light anomalies instead of destroying the music.
Enjoy the music, not the ticks & pops.
My rips are almost rough rips.

  • Software: iZotope RX 4 Advanced, Adobe Audition CS 5.5, Twisted Wave 1.9
  • Super light de-clicking with iZotope, significant clicks manually removing, no de-noising
  • DR-Analisys before converting to Flac
  • Converting Wave -> Flac: Twisted Wave 1.9
  • Artwork: Sony Alpha 350, Epson Perfection V750 Pro, Photoshop CS 5.5

If you like what i do, please consider that a little donation would be very appreciate.
I reinvest all donations in maintenance of my rig, for purchasing cleaning solutions and, most important of all, purchasing of new vinyls.
Click on the “Donate”-button.

Thank you very much !

Download from FileFactory
2 archives
PW: LaWally


9 thoughts on “HD-Vinyls 24/96 (Turnabout) Franz Schubert – Allegro In A Minor “Lebensstürme” / “Grand Duo” Sonata (Brendel/Crochet)

  1. Evelyne Chrochet is now forgotten.I heard her in the early sixtees in Hamburg with Schmidt-Isserstedt. -Brendel in his “early times” made several recordings with her in Vienna. I like his recordings for Vox very much. Later he recorded music for two pianos with the still wonderful Imogen Cooper. Trottar

Leave a Reply