HD-Vinyls 96/24 (DGG) G. Verdi – All Ouvertures and Preludes (Karajan)

Many Many Thanks to a great donator for sending me this gem!
Reposted, now with FF links

# Composer: Giuseppe Verdi
# Orchestra: Berlin Philarmonic Orchestra
# Conductor: Herbert von Karajan
# Vinyls (1976)
# Number of Discs: 2
# Format: Flac
# Label: Deutsche Grammophon
# DR-Analysis: DR 13
# ASIN CD: not found
# Size: 2.06 GB
# Scan: yes
# Server: FF

Track Listing

A1 Oberto Conte Di San Bonifacio.flac
A2 Un Giorno Di Regno.flac
A3 Nabucco.flac
A4 Ernani.flac
A5 Giovanna D’Arco.flac
B1 Alzira.flac
B2 Attila.flac
B3 I Masnadieri.flac
B4 Macbeth.flac
B5 Il Corsaro.flac
C1 La Battaglia Di Legnano.flac
C2 Luisa Miller.flac
C3 Rigoletto.flac
C4 La Traviata.flac
C5 I Vespri Siciliani.flac
D1 Aroldo.flac
D2 Un Ballo In Maschera.flac
D3 La Forza Del Destino.flac
D4 Aida.flac

Analyzed folder: /Users/alfredo/Desktop/ HiResMusic/96k Verdi – Ouvertures – Karajan
DR        Peak        RMS        Filename
DR12        -0.58 dB     -18.14 dB     A1 Oberto Conte Di San Bonifacio.wav
DR12        -0.34 dB     -17.36 dB     A2 Un Giorno Di Regno.wav
DR12        -0.55 dB     -18.40 dB     A3 Nabucco.wav
DR13        -2.28 dB     -22.73 dB     A4 Ernani.wav
DR12        -0.38 dB     -18.78 dB     A5 Giovanna D’Arco.wav
DR12        -0.35 dB     -17.82 dB     B1 Alzira.wav
DR12        -0.34 dB     -18.82 dB     B2 Attila.wav
DR12        -0.48 dB     -19.41 dB     B3 I Masnadieri.wav
DR12        -0.25 dB     -17.56 dB     B4 Macbeth.wav
DR12        -0.09 dB     -18.21 dB     B5 Il Corsaro.wav
DR12        -0.15 dB     -18.42 dB     C1 La Battaglia Di Legnano.wav
DR12        -0.46 dB     -18.06 dB     C2 Luisa Miller.wav
DR11        -0.64 dB     -18.88 dB     C3 Rigoletto.wav
DR15        -6.32 dB     -28.43 dB     C4 La Traviata.wav
DR12        -0.62 dB     -18.83 dB     C5 I Vespri Siciliani.wav
DR12        -0.88 dB     -17.92 dB     D1 Aroldo.wav
DR17        -0.42 dB     -24.66 dB     D2 Un Ballo In Maschera.wav
DR12        -0.71 dB     -18.70 dB     D3 La Forza Del Destino.wav
DR12        -1.49 dB     -20.89 dB     D4 Aida.wav
Number of files:    19
Official DR value:    DR13


Ripping Infos

  • RCM: Okki Nokki
  • TT: Clearaudio Champion Level II
  • System: Special Edition Denon DL 103
  • Phono stage: Pro-Ject Phono Box II
  • Pre Amp: Unison Research Unico Pre (Tube)
  • ADC/DAC: RME Fireface UC
  • Finals: Opera Consonance 9.9 Mono (Tube)
  • Speakers: Dali Helikon 400
  • Connections: MIT Terminator, Audioquest Emerald, Audioquest Quartz
  • Software: iZotope RX Advanced v2.02, Adobe Audition CS 5.5 -> Wave 32 bit/96 kHz
  • Light de-Clicking with ClickRepair, significant clicks manually removing, no De-Noising

You hear some clicks and pops here and there? Who cares?
I better let some light anomalies instead of destroying the music. Enjoy the music, not the ticks & pops.

  • DR-Analisys before converting to Flac
  • Converting Wave 32bit/96kHz -> Flac 24bit/96kHz: Twisted Wave
  • Artwork: Sony Alpha 350, Epson Perfection V750 Pro, Photoshop CS 5.5

If you like what i do, please consider that a little donation would be very appreciate. I reinvest all donations in maintenance of my rig, for purchasing cleaning solutions and, most important of all, purchasing of new vinyls.
Click on the “Donate”-button. Thank you very much !

Download fro
6 archives
PW: LaWally


18 thoughts on “HD-Vinyls 96/24 (DGG) G. Verdi – All Ouvertures and Preludes (Karajan)

  1. Glorious. You have outdone yourself Alf, hitting a great balance with the delicate use of click-repair at a low setting. This ‘series’ promises to be outstanding!

    • Yeah my friend…this is indeed a really Near Mint Box….seems as if my friend from USA, howver, “forgot” to play the records after opening the box 😉

  2. This is wonderful..except fo the Forza overture….during the opening brass cords yhou can hear ‘beats”..pulsations….I have noticed this in another file..your Karajan Tchaikovsky Capriccio Italien.

    I have to convert things to AIFF because I use iTunes, which doesn’t like FLAC files…but I have not had this problem in any other of your files. That Capriccio sounds glorious once you get past the opening. Is there any way to redo irt..or do you think it is my conversion process?


Leave a Reply