HD-Vinyls 96/24 (Philips) Giuseppe Verdi – Un Giorno Di Regno (Il Finto Stanislao)

From the 1st package of operas, received from USA – Many Many Thanks!

# Composer: Giuseppe Verdi
# Performers: Fiorenza Cossotto, Jessye Norman, José Carreras, Ingvar Vixell
# Orchestra: Royal Philarmonic Orchestra
# Conductor: Lamberto Gardelli
# Vinyls (1974)
# Number of Discs: 3
# Format: Flac
# Label: Philips
# DR-Analysis: DR 14
# ASIN CD: B00000410H
# Size: 2.19 GB
# Scan: yes
# Server: FF

If you want to know what joy of singing is, try listening to this opera. It’s really great. Terrific. You’ll find joy in it, and you’ll never think you’ve lost your money because you’ve bought it.

Most opera lovers know that this was Verdi’s second opera and first fiasco. The failure of Un giorno di regno hit him so hard that he almost gave up his career as a composer. As reasons for the fiasco we are told that while Verdi was composing this opera buffa, his wife and two children died. It is understandable that someone dealing with such personal tragedy may not be in the best mental state to write a comic opera. And that is all most of us know about this opera.

But after hearing this recording, I think it is completely unfair to apologize on Verdi’s behalf. Un giorno di regno is absolutely delightful. Sure, it’s not hysterically funny, like Rossini’s comic operas, but the music is extremely well-crafted. Verdi really did know what he was doing even though he was still in his 20s. Listen to the Marchesa’s beautiful big aria in Act II, with its graceful chromaticism, ornamentation and cadenzas. It’s gorgeous stuff, almost reminiscent of Bellini. There is plenty of wonderfully energetic music. Perhaps taking his cue from Rossini and La Cenerentola, Verdi wrote TWO wonderful buffo duets (Treasurer/Baron). Many of the pages of Il corsaro, Alzira, Attila and Giovanna d’Arco strike me as uninspired “filler”. But I do not get that feeling with Un giorno di regno. I think Verdi did a great job… mostly…

Bless his heart, he did not quite know the capabilities of the human voice yet. The soprano roles are actually quite low, with the Marchesa regularly dipping down to low Cs, Bs and As. The soprano lead in Verdi’s first opera, Oberto, also descends below the staff on a regular basis. The men’s roles, however are all very high. Verdi did not write many high Cs for his tenors. I can think of one case in which Verdi asks his tenors to sing a high C: Otello (“cortigiaaaaaNA!”) and a high D: I vespri siciliani. But here Verdi asks the tenor to sing a high C and hold it (in the act II aria). All three of the bass/baritone buffos regularly ascend to high Es, Fs and F-sharps.

Now, the performance. It’s marvelous. First of all, Fiorenza Cossotto is just perfect as the Marchesa. Beautiful tone, personality, coloratura, high notes, low notes — she’s got it all. Not a single note is strained or forced. Jessye Norman is quite obviously out of her element here. Much of what she does is lovely and cute, but when surrounded by the likes of Cossotto and Carreras, it becomes apparent that she is simply not very idiomatic here. The Italian is not good, especially in recitatives. Her intonation is sometimes off. But one can hear that she is an intelligent singing actress.

Carreras is heavenly. In 1974 he was at the beginning of his career and the voice is handsome, full, unforced and soaring. The high C I mentioned earlier is magnificent! Ingvar Wixell does a great job as well. His voice is resonant, full of color and his delivery is appropriately humorous. He handles the high tessitura of his aria very skillfully. Vicente Sardinero was, I think, a very underrated artist. He had a glorious baritone, well displayed on the recording of Puccini’s second opera, Edgar. Here he is the Treasurer and sings beautifully. Vladimiro Ganzarolli is the Baron. Gorgeous bass! He also handles the high tessitura wonderfully and infuses his delivery with great comic colors.

You just can’t lose with this recording. The music is delightful — a real testament to what Verdi was capable of, even in the worst of circumstances. This opera really needs no apology. The performances are great.

Analyzed folder: /Users/alfredo/Desktop/ HiResMusic/96kGV_UnGiDiRe/96k Verdi – Un Giorno Di Regno – Cossotto
DR        Peak        RMS        Filename
DR14        -0.86 dB     -19.61 dB     sideA.wav
DR15        -1.23 dB     -20.92 dB     sideB.wav
DR14        -0.77 dB     -19.79 dB     sideC.wav
DR15        -0.82 dB     -20.73 dB     sideD.wav
DR15        -1.05 dB     -20.86 dB     sideE.wav
DR14        -0.60 dB     -19.22 dB     sideF.wav
Number of files:    6
Official DR value:    DR14

Ripping Infos

  • RCM: Okki Nokki
  • TT: Clearaudio Champion Level II
  • System: Special Edition Denon DL 103
  • Phono stage: Pro-Ject Phono Box II
  • Pre Amp: Unison Research Unico Pre (Tube)
  • ADC/DAC: RME Fireface UC
  • Finals: Opera Consonance 9.9 Mono (Tube)
  • Speakers: Dali Helikon 400
  • Connections: MIT Terminator, Audioquest Emerald, Audioquest Quartz
  • Software: iZotope RX Advanced v2.02, Adobe Audition CS 5.5 -> Wave 32 bit/96 kHz
  • Light de-Clicking with ClickRepair, significant clicks manually removing, no De-Noising

You hear some clicks and pops here and there? Who cares?
I better let some light anomalies instead of destroying the music. Enjoy the music, not the ticks & pops.

  • DR-Analisys before converting to Flac
  • Converting Wave 32bit/96kHz -> Flac 24bit/96kHz: Twisted Wave
  • Artwork: Sony Alpha 350, Epson Perfection V750 Pro, Photoshop CS 5.5

If you like what i do, please consider that a little donation would be very appreciate. I reinvest all donations in maintenance of my rig, for purchasing cleaning solutions and, most important of all, purchasing of new vinyls.
Click on the “Donate”-button. Thank you very much !

Download fro
m FileFactory
6 archives

PW: LaWally

7 thoughts on “HD-Vinyls 96/24 (Philips) Giuseppe Verdi – Un Giorno Di Regno (Il Finto Stanislao)

  1. Clearly the download platforms are restless and deleted when you least expect your files.
    Actually, I do not like filefactoy, Filepost prefer because it is faster and downloads not have to do one by one and plus I have Filepost account, before you too were working with them … I hope you return soon Filepost.

    Thank you.

Leave a Reply