HD-Vinyls(Mono) 24/96 (EMI) Ludwig van Beethoven – Symphony No. 5 (Furtwängler)

front-small-boxsetWilhelm Furtwängler’s last recording of Beethoven’s immortal Symphony No.5 with the Vienna Philharmonic stands out among his many others.

Composer: Ludwig van Beethoven
Orchestra: Vienna Philarmonic Orchestra
Conductor: Wilhelm Furtwängler
Vinyl (1954)
Number of Discs: 1
Format: Flac
Label: EMI
DR-Analysis: DR 12
Size: 353 MB
Scan: yes
Server: FileFactory

 

———————————————————————————————-
Analyzed folder: /96k(Mono) LvB – Symphony No. 5 – Furtwaengler
———————————————————————————————-
DR        Peak        RMS        Filename
———————————————————————————————-
DR11        -1.26 dB     -16.65 dB     A1 Symphony No. 5 In C Minor, Op. 67 – 1st Mov. Allegro Con Brio.aif
DR12        -1.29 dB     -19.54 dB     A2 Symphony No. 5 In C Minor, Op. 67 – 2nd Mov. Andante Con Moto.aif
DR12        -0.74 dB     -19.73 dB     B1 Symphony No. 5 In C Minor, Op. 67 – 3rd Mov. Scherzo (Allegro).aif
DR12        -2.24 dB     -18.35 dB     B2 Symphony No. 5 In C Minor, Op. 67 – 4th Mov. Allegro.aif
———————————————————————————————-
Number of files:    4
Official DR value:    DR12
==============================================================================================

Ripping Info

Monitoring

  • Software: iZotope RX 4 Advanced, Adobe Audition CS 5.5, Twisted Wave 1.9
  • Super light de-clicking with iZotope, significant clicks manually removing, no de-noising
  • DR-Analisys before converting to Flac
  • Converting Wave -> Flac: Twisted Wave 1.9
  • Artwork: Sony Alpha 350, Epson Perfection V750 Pro, Photoshop CS 5.5

DONATION !
If you like what i do, please consider that a little donation would be very appreciate.
I reinvest all donations in maintenance of my rig, for purchasing cleaning solutions and, most important of all, purchasing of new vinyls.
Click on the “Donate”-button.

Thank you very much !

Download from FileFactory

PW: LaWally

 

13 thoughts on “HD-Vinyls(Mono) 24/96 (EMI) Ludwig van Beethoven – Symphony No. 5 (Furtwängler)

  1. Wahnsinn!!!Damit machst Du mir eine riesen Freude!!!! Mein geliebter Beethoven und dann auch noch unter Furtwängler. Vielen, vielen Dank lieber Alf!

Leave a Reply