Hi-End HD-Vinyl 24/192 (Telarc) Michael Murray – Encores À La Française • The Organ At Symphony Hall, Boston


Michael Murray is a consummate artist. He’s solid, not flashy. He has deep understanding of the music, he has beautiful technique and his pedal technique is second to none. He has played and recorded widely and is one of the great organists of our time. You can’t go wrong with anything he does. He plays music, not just notes.

Audiophile factor & artistic factor: High!

Composer: César Franck, Marcel Dupré, Louis Couperin, Eugène Gigout, Charles-Marie Widor, Johann Sebastian Bach, Louis Vierne, Jacques-Nicolas Lemmens
Performer: Michael Murray

Vinyl 1982
Number of Discs: 1

Format: FLAC

Label: Telarc
DR-Analysis: DR 12
Size: 1.56 GB
Scan: yes
Server: FF


Michael Murray plays the Aeolian-Skinner organ, Opus 1134, at the Symphony Hall, Boston

Tracklist

A1 Chacone In G Minor

Composed By – Couperin

2:40
A2 Carrilon, Op. 27, No. 4

Composed By – Dupré

5:41
A3 Scherzo

Composed By – Gigout

4:17
A4 Pièce Héroïque

Composed By – Franck

8:40
B1 Tocata, Symphony No. 5

Composed By – Widor

5:18
B2 Sinfonia From Cantata 29

Composed By – Bach

Transcription By – Dupré

3:46
B3 Final From Symphony No. 1

Composed By – Vierne

5:39
B4 Musette, Op. 51

Composed By – Dupré

2:16
B5 Fanfare

Composed By – Lemmens

1:40

———————————————————————————————-
Analyzed folder: /192k(Telarc) Michael Murray – Encore A La Francaise
———————————————————————————————-
DR Peak RMS Filename
———————————————————————————————-

DR12 -2.47 dB -18.26 dB A1 Couperin – Chaconne In G Minor.aif
DR12 -1.23 dB -18.26 dB A2 Dupre’ – Carrilon, Op. 27, No. 4.aif
DR10 -14.20 dB -29.17 dB A3 Gigout – Scherzo.aif
DR13 -1.28 dB -19.49 dB A4 Franck – Piece Heroique.aif
DR12 -0.60 dB -17.07 dB B1 Widor – Tocata from Symphony No. 5.aif
DR14 -2.75 dB -22.37 dB B2 Dupre’ – Sinfonia From Cantata 29 (Composed By J.S. Bach).aif
DR13 -0.54 dB -19.21 dB B3 Vierne – Final from Symphony No. 1.aif
DR9 -22.07 dB -34.86 dB B4 Dupre’ – Musette, Op. 51.aif
DR13 -3.41 dB -21.95 dB B5 Lemmens – Fanfare.aif
———————————————————————————————-

Number of files: 9
Official DR value: DR12

==============================================================================================

Credits

  • Art Direction – Ray Kirschensteiner
  • Engineer [Recording] – Jack Renner
  • Photography By [Cover] – Lincoln Russel
  • Producer [Assistance] – Elaine Martone
  • Producer [Recording] – Robert Woods
  • Organ – Michael Murray

Ripping Info

Monitoring

A few words about the way i’ve been cleaning vinyl records and post-processing rips, since summer 2017: After washing and recording the vinyl, I use a kind of mixed cleaning of the rip, which consists of mostly manual rather than automatic de-clicking, (the latter only on unimportant passages, such as end of the groove, beginning and end of the songs, applause, speaking). I often leave the rips almost rough, de-clicking only the silences between the tracks. Never de-noising or/and EQ, as unfortunately some do. I prefer to hear a bit of quiet noises of the clean groove, that contain something of the music, rather than generate clinically clean files that may, eventually, sound a bit dead. If you do not agree, do not download my rips and buy instead digital files or CDs.
When I listen to music I “don’t hear” any noise: I enjoy the music 😀
I do not make rips for headphones!

  • Software: iZotope RX 5 Advanced, Adobe Audition CS 5.5, Twisted Wave 1.18
  • Very careful de-clicking with iZotope, significant clicks manually removed, never de-noising
  • DR-Analisys
  • Wave 32/192(32/384) —> Flac 24/96 & 24/192: Twisted Wave 1.18
  • Artwork: Sony Alpha 350, Epson Perfection V750 Pro, Photoshop CS 5.5

 

8 thoughts on “Hi-End HD-Vinyl 24/192 (Telarc) Michael Murray – Encores À La Française • The Organ At Symphony Hall, Boston

  1. Thank you kindly for this marvelous record. Your choice of music and MASTERFUL transfer from analog to digital brought me to much of enjoyment!

Leave a Reply