HD-Vinyl 96/24 (DGG) Pjotr Tchaikowsky – Piano Concerto No. 1 (Berman/Karajan)

Reposted, now with FF links
Sorry for the watermark on the cover: I don’t own this vinyl anymore.

# Composer: Peter Tchaikowsky
# Performer: Lazar Berman
# Orchestra: Berlin Philarmonic Orchestra

# Conductor: Herbert von Karajan
# Vinyl (1976)

# Number of Discs: 1
# Format: Flac
# Label: Deutsche Grammophon Gesellschaft
# DR-Analysis: DR 13
# ASIN CD: B00000E4FU

# Size: 675 MB
# Scan: yes
# Server: FileFactory

 Analyzed folder: /Volumes/HDMUSIC/   Upload on HiResMusic/96kTch_PP1_Ber/96k Tchaikowsky – Piano Concerto No. 1 – Berman
 DR        Peak        RMS        Filename
 DR12        -1.43 dB     -19.33 dB     A First Movement-Allegro Non Troppo E Molto Maestoso.wav
 DR12        -0.51 dB     -18.13 dB     B2 Third Movement-Allegro Con Fuoco.wav
 DR15        -4.14 dB     -28.13 dB     B1 Second Movement-Andantino Semplice.wav
 Number of files:    3
 Official DR value:    DR13

Ripping Infos

  • RCM: Okki Nokki
  • TT: Clearaudio Champion Level II
  • System: Limited Edition Denon DL 103 SA
  • Phono stage: Pro-Ject Phono Box II
  • Pre Amp: Unison Research Unico Pre (Tube)
  • Finals: Opera Consonance 9.9 Mono (Tube)
  • Speakers: Dali Helikon 400
  • Connections: MIT Terminator, Audioquest Emerald, Audioquest Quartz
  • Software: iZotope RX Advanced v2.02, Adobe Audition CS 5.5, Twisted Wave 1.9
  • Light de-Clicking with iZotope, significant clicks manually removing, no De-Noising

If You hear some clicks and pops here and there, Who cares?
Id rather have a few light anomalies instead of destroying the music. Enjoy the music, not the ticks & pops

  • DR-Analisys before converting to Flac
  • Converting Wave -> Flac: Twisted Wave 1.9
  • Artwork: Sony Alpha 350, Epson Perfection V750 Pro, Photoshop CS 5.5

If you like what i do, please consider that a little donation would be very appreciate. I reinvest all donations in maintenance of my rig, for purchasing cleaning solutions and, most important of all, purchasing of new vinyls.
Click on the “Donate”-button. Thank you very much !

Download from FileFactory

2 archives
PW: LaWally

7 thoughts on “HD-Vinyl 96/24 (DGG) Pjotr Tchaikowsky – Piano Concerto No. 1 (Berman/Karajan)

  1. This is awsomely great! Boxset’s heavenly content in the last is so fantastic and I have so many assignments to finish that I’m not commenting to thank properly.

    Lazar Berman is great, if you want an introduction to his technique I would recommend you his recording of Rachmaninov’s Third Piano Concerto properli acompained by the London Philharmonic Orchestra conducted by Claudio Abbado in his early years. The clarity alongside the tempo he chose to some parts produces an incredible emotional effect. The clarity is the greatest among all recordings. Unfortunately I had difficulties finding detailed biographical information about this great musician. I’m looking foward to listen this performance. Thank very much,dear Rachmaninov.

Leave a Reply