HD-Vinyl 96/24 (EMI) Luigi Cherubini – Requiem (Muti)

Simply beautiful!

# Composer: Luigi Cherubini
# Orchestra: New Philarmonia Orchestra & Ambrosian Singers
# Conductor: Riccardo Muti
# Vinyl (1975)

# Number of Discs: 1
# Format: Flac
# Label: EMI
# DR-Analysis: DR 12
# ASIN CD: B000005GIA

# Size: 880 MB
# Scan: yes
# Server: FileFactory

Cherubini wrote this work for himself, the liner notes tell us, after the Church refused to allow the C minor Requiem liturgically because of the women’s voices. This is one case where the authoritarianism of the Church produced a benefit, and yes, we are assured that Cherubini’s funeral was celebrated with a performance. Muti’s performance is on the same high level as all his wonderful Cherubini series. This is a masterwork by a composer whose output is sometimes variable or problematic.

 Analyzed folder: /96k Cherubini Requiem
 DR        Peak        RMS        Filename
 DR13        -6.86 dB     -25.89 dB     A1 Introitus et Kyrie.wav
 DR12        -13.04 dB     -30.74 dB     A2 Graduale.wav
 DR13        -0.85 dB     -19.36 dB     A3 Dies Irae.wav
 DR12        -2.89 dB     -19.35 dB     B1 Offertorium.wav
 DR10        -1.45 dB     -14.82 dB     B2 Sanctus.wav
 DR14        -14.20 dB     -33.64 dB     B3 Pie Jesu.wav
 DR12        -3.36 dB     -22.17 dB     B4 Agnus Dei.wav
 Number of files:    7
 Official DR value:    DR12

Ripping Infos

  • RCM: Okki Nokki
  • TT: Clearaudio Champion Level II
  • System: Limited Edition Denon DL 103 SA
  • Phono stage: Pro-Ject Phono Box II
  • Pre Amp: Unison Research Unico Pre (Tube)
  • Finals: Opera Consonance 9.9 Mono (Tube)
  • Speakers: Dali Helikon 400
  • Connections: MIT Terminator, Audioquest Emerald, Audioquest Quartz
  • Software: iZotope RX Advanced v2.02, Adobe Audition CS 5.5, Twisted Wave 1.9
  • Light de-Clicking with iZotope, significant clicks manually removing, no De-Noising

If You hear some clicks and pops here and there, Who cares?
Id rather have a few light anomalies instead of destroying the music. Enjoy the music, not the ticks & pops

  • DR-Analisys before converting to Flac
  • Converting Wave -> Flac: Twisted Wave 1.9
  • Artwork: Sony Alpha 350, Epson Perfection V750 Pro, Photoshop CS 5.5

If you like what i do, please consider that a little donation would be very appreciate. I reinvest all donations in maintenance of my rig, for purchasing cleaning solutions and, most important of all, purchasing of new vinyls.
Click on the “Donate”-button. Thank you very much !

Download from FileFactory

3 archives
PW: LaWally

10 thoughts on “HD-Vinyl 96/24 (EMI) Luigi Cherubini – Requiem (Muti)

Leave a Reply